<svg xmlns="http://www.w3.org/2000/svg">
<defs>
<font id="TofinoPersonal-Medium" horiz-adv-x="0" >
  <font-face 
    font-family="Tofino Personal Medium"
    font-weight="440"
    font-stretch="normal"
    units-per-em="1000"
    panose-1="0 0 5 0 0 0 0 0 0 0"
    ascent="760"
    descent="-240"
    x-height="538"
    cap-height="714"
    bbox="-749 -267 1175 1135"
    underline-thickness="50"
    underline-position="-75"
    unicode-range="U+0020-U+2661"
  />
<missing-glyph horiz-adv-x="616" 
d="M501 521q13 -9 15 -30t-11 -32q-10 -7 -24 -7q-15 0 -46 9q60 -63 60 -152q0 -87 -58 -149t-140 -62q-81 0 -139 62t-58 149q0 94 63 155q-22 31 -8 64q13 31 53 51.5t89 20.5q50 0 91.5 -21.5t55.5 -54.5l1 -2q38 12 56 -1zM297 576q-41 0 -75.5 -16.5t-44.5 -40.5
q-9 -19 4 -39q51 40 112 41q0 12 3 20q9 21 25 25q21 5 63 -33l2 -2q8 3 15 3q3 0 9 -2q-17 20 -49 32t-64 12zM319 532q-3 -8 -1 -12q5 -9 43 -14q1 -1 3 -1q1 1 1 3l3 7q-33 30 -42 28q-4 -2 -7 -11zM402 484q11 0 13 9q2 6 -1 10q-3 5 -9 6q-1 1 -4 1q-10 0 -13 -9
q-1 -3 1 -9q4 -6 9 -7zM440 485q43 -13 50 -7q4 2 2 12q0 8 -4 12q-8 6 -45 -5q-1 -1 -4 -1q0 -7 -1 -10q1 -1 2 -1zM228 482q-16 -18 -5 -41q16 -34 79.5 -61t162.5 -22q-17 65 -66 103q-5 0 -8 1q-15 5 -22 18h-1l-10 2q-35 4 -49 14q-4 1 -12 1q-36 0 -69 -15zM202 431
q-7 14 -7 30q-54 -44 -67 -112q29 -1 61 10t52 27q-27 20 -39 45zM447 318q9 12 14 16h-24q-105 0 -175 39q-46 -44 -124 -48l8 -7q16 9 57 9q50 0 71 -10q23 -11 46 0q20 10 71 10q43 0 56 -9zM124 309q0 -77 51 -132.5t122 -55.5q72 0 123 55.5t51 132.5q0 3 -0.5 8.5
t-0.5 8.5q-7 -6 -16 -18v-1q3 -28 -7 -50t-32 -25q-16 -2 -32 -2q-35 0 -47 7q-21 12 -28 45q-1 2 -1 5q-3 10 -11 10q-6 0 -9 -10q-1 -1 -1 -5q-7 -33 -29 -45q-12 -7 -47 -7q-17 0 -31 2q-22 3 -32.5 25.5t-7.5 49.5v1l-15 14v-13zM252 247q17 10 22 37q3 13 -2 20l-2 2
h-1q-18 10 -66 10q-18 0 -30.5 -2t-17 -4.5t-4.5 -3.5q-2 -21 5 -40.5t24 -21.5q16 -2 30 -2q32 0 42 5zM383 242q15 0 31 2q17 2 24 22t5 40q-5 10 -52 10q-48 0 -66 -10q-1 0 -1 -1l-2 -1q-5 -7 -2 -20q3 -26 22 -37q10 -5 41 -5zM226 294q11 -6 11 -21q0 -10 -7 -17

<glyph glyph-name="f_f" unicode="ff" horiz-adv-x="681" 
d="M96 0v432h-73v98h73v41q0 190 178 190h71v-102h-36q-56 0 -76.5 -24t-20.5 -82v-23h213v41q0 190 178 190h71v-102h-36q-56 0 -76.5 -24t-20.5 -82v-23h130v-98h-130v-432h-116v432h-213v-432h-116z" />
    <glyph glyph-name="f_f_i" unicode="ffi" horiz-adv-x="933" 
d="M96 0v432h-73v98h73v41q0 190 178 190h71v-102h-36q-56 0 -76.5 -24t-20.5 -82v-23h213v41q0 190 178 190h71v-102h-36q-56 0 -76.5 -24t-20.5 -82v-23h128v-98h-128v-432h-116v432h-213v-432h-116zM747 633v125h117v-125h-117zM747 0v540h116v-540h-116z" />
    <glyph glyph-name="f_f_l" unicode="ffl" horiz-adv-x="936" 
d="M96 0v432h-73v98h73v41q0 190 178 190h71v-102h-36q-56 0 -76.5 -24t-20.5 -82v-23h213v41q0 190 178 190h71v-102h-36q-56 0 -76.5 -24t-20.5 -82v-23h129v-98h-129v-432h-116v432h-213v-432h-116zM749 0v754h115v-754h-115z" />
    <glyph glyph-name=".notdef" horiz-adv-x="616" 
d="M501 521q13 -9 15 -30t-11 -32q-10 -7 -24 -7q-15 0 -46 9q60 -63 60 -152q0 -87 -58 -149t-140 -62q-81 0 -139 62t-58 149q0 94 63 155q-22 31 -8 64q13 31 53 51.5t89 20.5q50 0 91.5 -21.5t55.5 -54.5l1 -2q38 12 56 -1zM297 576q-41 0 -75.5 -16.5t-44.5 -40.5
q-9 -19 4 -39q51 40 112 41q0 12 3 20q9 21 25 25q21 5 63 -33l2 -2q8 3 15 3q3 0 9 -2q-17 20 -49 32t-64 12zM319 532q-3 -8 -1 -12q5 -9 43 -14q1 -1 3 -1q1 1 1 3l3 7q-33 30 -42 28q-4 -2 -7 -11zM402 484q11 0 13 9q2 6 -1 10q-3 5 -9 6q-1 1 -4 1q-10 0 -13 -9
q-1 -3 1 -9q4 -6 9 -7zM440 485q43 -13 50 -7q4 2 2 12q0 8 -4 12q-8 6 -45 -5q-1 -1 -4 -1q0 -7 -1 -10q1 -1 2 -1zM228 482q-16 -18 -5 -41q16 -34 79.5 -61t162.5 -22q-17 65 -66 103q-5 0 -8 1q-15 5 -22 18h-1l-10 2q-35 4 -49 14q-4 1 -12 1q-36 0 -69 -15zM202 431
q-7 14 -7 30q-54 -44 -67 -112q29 -1 61 10t52 27q-27 20 -39 45zM447 318q9 12 14 16h-24q-105 0 -175 39q-46 -44 -124 -48l8 -7q16 9 57 9q50 0 71 -10q23 -11 46 0q20 10 71 10q43 0 56 -9zM124 309q0 -77 51 -132.5t122 -55.5q72 0 123 55.5t51 132.5q0 3 -0.5 8.5
t-0.5 8.5q-7 -6 -16 -18v-1q3 -28 -7 -50t-32 -25q-16 -2 -32 -2q-35 0 -47 7q-21 12 -28 45q-1 2 -1 5q-3 10 -11 10q-6 0 -9 -10q-1 -1 -1 -5q-7 -33 -29 -45q-12 -7 -47 -7q-17 0 -31 2q-22 3 -32.5 25.5t-7.5 49.5v1l-15 14v-13zM252 247q17 10 22 37q3 13 -2 20l-2 2
h-1q-18 10 -66 10q-18 0 -30.5 -2t-17 -4.5t-4.5 -3.5q-2 -21 5 -40.5t24 -21.5q16 -2 30 -2q32 0 42 5zM383 242q15 0 31 2q17 2 24 22t5 40q-5 10 -52 10q-48 0 -66 -10q-1 0 -1 -1l-2 -1q-5 -7 -2 -20q3 -26 22 -37q10 -5 41 -5zM226 294q11 -6 11 -21q0 -10 -7 -17
t-17 -7t-17 7t-7 17q0 5 1 8l-11 9q-3 2 0 5q2 2 5 0l9 -8l3 4l-6 11q-1 1 -0.5 2.5t1.5 2.5q3 2 5 -2l6 -10l4 2l-2 12q0 4 4 4q2 0 4 -3l1 -12q1 0 3 -0.5t3 -0.5l3 13q2 3 5 3q4 -2 2 -5zM414 295q1 1 2.5 1t2.5 -1q2 -4 -1 -5l-10 -10q0 -1 0.5 -3t0.5 -4
q0 -10 -7.5 -17t-17.5 -7t-17 7t-7 17q0 14 12 21l-4 14q0 4 3 5q4 0 4 -3l3 -13q2 1 6 1l2 12q0 3 4 3q3 0 3 -4l-2 -12l5 -2l6 10q2 4 4 2q1 -1 2 -2.5t0 -2.5l-7 -11q3 -1 3 -4zM296 143q23 0 38.5 10.5t15.5 26.5q0 15 -16 25.5t-38 10.5t-38 -10.5t-16 -25.5
q0 -16 15.5 -26.5t38.5 -10.5z" />
    <glyph glyph-name=".null" 
 />
    <glyph glyph-name="nonmarkingreturn" horiz-adv-x="333" 
 />
    <glyph glyph-name="space" unicode=" " horiz-adv-x="207" 
 />
    <glyph glyph-name="exclam" unicode="!" horiz-adv-x="260" 
d="M76 176l-4 538h116l-5 -538h-107zM72 0v127h116v-127h-116z" />
    <glyph glyph-name="quotedbl" unicode="&#x22;" horiz-adv-x="362" 
d="M55 532l-18 224h124l-18 -224h-88zM219 532l-18 224h124l-18 -224h-88z" />
    <glyph glyph-name="numbersign" unicode="#" horiz-adv-x="746" 
d="M126 0l37 187h-96v86h113l35 174h-101v86h118l34 169h91l-34 -169h149l34 169h91l-34 -169h99v-86h-116l-35 -174h104v-86h-121l-37 -187h-91l37 187h-149l-37 -187h-91zM271 273h149l35 174h-149z" />
    <glyph glyph-name="dollar" unicode="$" horiz-adv-x="570" 
d="M232 -44v85q-189 23 -189 212h100q0 -97 89 -119v201q-41 11 -69 22.5t-56.5 32t-43 52t-14.5 74.5q2 159 183 178v70h104v-70q97 -11 138.5 -60.5t41.5 -137.5h-102q0 87 -78 104v-196q43 -11 72 -22.5t59.5 -32t46 -53t15.5 -75.5q0 -164 -193 -181v-84h-104zM151 518
q0 -32 21 -51.5t60 -33.5v169q-81 -14 -81 -84zM426 218q0 34 -23 54t-67 34v-176q90 14 90 88z" />
    <glyph glyph-name="percent" unicode="%" horiz-adv-x="838" 
d="M376 538q0 -89 -39.5 -135t-132.5 -46q-92 0 -132.5 46t-40.5 135q0 90 40.5 137t132.5 47q93 0 132.5 -47t39.5 -137zM128 0l460 702h109l-460 -702h-109zM116 538q0 -54 21 -80t67 -26q47 0 67 25.5t20 80.5t-20 82.5t-67 27.5q-88 0 -88 -110zM791 160
q0 -89 -39.5 -135t-131.5 -46t-132.5 46t-40.5 135q0 90 40.5 137.5t132.5 47.5t131.5 -47.5t39.5 -137.5zM531 160q0 -54 21 -80t68 -26t67 26t20 80q0 55 -20.5 82.5t-66.5 27.5q-89 0 -89 -110z" />
    <glyph glyph-name="ampersand" unicode="&#x26;" horiz-adv-x="727" 
d="M365 733q208 0 208 -198h-108q0 112 -100 112q-107 0 -107 -100q0 -21 6.5 -41.5t14 -35.5t27 -38t32 -36l42.5 -43.5l46 -47.5l102 -107q24 70 24 183h99q0 -160 -53 -255l96 -98v-32h-105l-53 54q-81 -69 -223 -69q-248 0 -248 224q0 46 13.5 84t36 61.5t43 38
t42.5 23.5q-49 68 -49 144q0 177 214 177zM323 274l-70 74q-85 -44 -85 -143q0 -143 166 -143q94 0 143 49z" />
    <glyph glyph-name="quotesingle" unicode="'" horiz-adv-x="198" 
d="M55 532l-18 224h124l-18 -224h-88z" />
    <glyph glyph-name="parenleft" unicode="(" horiz-adv-x="331" 
d="M76 279q0 82 10.5 162t26 135t31 98.5t26.5 64.5l10 21h106l-11 -23t-25 -64.5t-32 -102t-25 -132.5t-11 -159q0 -126 27.5 -244.5t54.5 -174.5l27 -56h-107l-11.5 21t-26 61t-33 98.5t-26 132t-11.5 162.5z" />
    <glyph glyph-name="parenright" unicode=")" horiz-adv-x="331" 
d="M151 760l11 -22t25 -62.5t32 -100.5t25 -133t11 -163t-11 -161.5t-27 -133.5t-32 -96.5t-27 -63.5l-11 -20h-107l11.5 22.5t26 63t33 100.5t26 131t11.5 158t-10.5 158t-26 134.5t-31 100t-26.5 66.5l-10 22h107z" />
    <glyph glyph-name="asterisk" unicode="*" horiz-adv-x="419" 
d="M61 593l23 72l91 -34l-4 95h77l-4 -95l91 34l23 -72l-92 -25l67 -78l-63 -49l-60 81l-60 -81l-64 49l68 78z" />
    <glyph glyph-name="plus" unicode="+" horiz-adv-x="485" 
d="M36 370h155v155h103v-155h155v-103h-155v-155h-103v155h-155v103z" />
    <glyph glyph-name="comma" unicode="," horiz-adv-x="248" 
d="M27 -115q23 53 39 135q8 37 11.5 66t3.5 40v10h106q-1 -43 -24 -125q-11 -39 -24.5 -70.5t-22.5 -43.5l-8 -12h-81z" />
    <glyph glyph-name="hyphen" unicode="-" horiz-adv-x="396" 
d="M75 273v90h246v-90h-246z" />
    <glyph glyph-name="period" unicode="." horiz-adv-x="243" 
d="M62 0v136h118v-136h-118z" />
    <glyph glyph-name="slash" unicode="/" horiz-adv-x="488" 
d="M43 -40l310 840h104l-310 -840h-104z" />
    <glyph glyph-name="zero" unicode="0" horiz-adv-x="643" 
d="M597 353q0 -198 -64.5 -281t-210.5 -83t-210.5 83t-64.5 281t64.5 281.5t210.5 83.5t210.5 -83.5t64.5 -281.5zM166 353q0 -146 36.5 -202t119.5 -56q82 0 119 56t37 202q0 145 -37 202t-119 57t-119 -57t-37 -202z" />
    <glyph glyph-name="one" unicode="1" horiz-adv-x="342" 
d="M132 0v568l-125 -50v118l169 73h71v-709h-115z" />
    <glyph glyph-name="two" unicode="2" horiz-adv-x="560" 
d="M25 3v105q90 62 186 143q52 42 75 62.5t54 54.5t43 64.5t12 66.5q0 50 -31.5 80.5t-92.5 30.5q-59 0 -94 -37t-35 -93h-117q0 108 61 173t183 65q129 0 187.5 -59t58.5 -150q0 -43 -12 -82t-26.5 -65.5t-47 -62t-51 -52l-62.5 -54.5q-21 -18 -107 -87l309 6v-109h-493z
" />
    <glyph glyph-name="three" unicode="3" horiz-adv-x="578" 
d="M339 447q102 -16 148.5 -71.5t46.5 -151.5q0 -107 -61.5 -172t-200.5 -65q-134 0 -195 62.5t-61 158.5h119q0 -51 34.5 -83.5t99.5 -32.5q140 0 140 141q0 64 -42 98.5t-116 34.5l-86 -5v84l191 150l-309 -1v108h474v-106z" />
    <glyph glyph-name="four" unicode="4" horiz-adv-x="590" 
d="M375 0v138h-363v101l296 466h181v-466h81v-101h-81v-138h-114zM375 239v400l-238 -400h238z" />
    <glyph glyph-name="five" unicode="5" horiz-adv-x="599" 
d="M216 593l-27 -160q56 34 155 34q111 0 166 -68.5t55 -173.5q0 -107 -62.5 -172.5t-199.5 -65.5q-72 0 -126 18t-83 48t-43 64.5t-14 73.5h123q0 -42 36.5 -71.5t106.5 -29.5q141 0 141 135q0 69 -35.5 107.5t-98.5 38.5q-47 0 -82 -14.5t-44.5 -24.5t-14.5 -18l-112 1
l60 384h408v-103z" />
    <glyph glyph-name="six" unicode="6" horiz-adv-x="631" 
d="M591 226q0 -109 -63 -174t-206 -65q-149 0 -211.5 78.5t-62.5 248.5q0 224 62 314.5t212 90.5q67 0 117.5 -19t77 -50.5t39 -65.5t12.5 -71h-118q0 43 -31 74.5t-96 31.5q-68 0 -103.5 -44.5t-46.5 -159.5q64 58 181 58q121 0 179 -69t58 -178zM327 372q-107 0 -159 -87
q4 -105 41 -151t113 -46q145 0 145 143q0 141 -140 141z" />
    <glyph glyph-name="seven" unicode="7" horiz-adv-x="497" 
d="M123 0q0 91 24.5 185t59.5 163.5t69.5 126.5t59.5 86l24 29l-357 2v110h489v-114q-10 -11 -27 -32t-60 -86t-75.5 -131t-59.5 -159.5t-27 -179.5h-120z" />
    <glyph glyph-name="eight" unicode="8" horiz-adv-x="623" 
d="M312 -11q-146 0 -209 53.5t-63 154.5q0 85 40 131.5t75 49.5q-26 4 -59 41.5t-33 104.5q0 195 249 195t249 -195q0 -67 -33.5 -104.5t-59.5 -41.5q13 -1 31 -12t38 -31t33.5 -56.5t13.5 -81.5q0 -101 -63 -154.5t-209 -53.5zM312 629q-131 0 -131 -115q0 -44 33.5 -69.5
t97.5 -25.5t97 25.5t33 69.5q0 59 -32 87t-98 28zM312 327q-72 0 -108.5 -30.5t-36.5 -86.5q0 -119 145 -119q144 0 144 119q0 117 -144 117z" />
    <glyph glyph-name="nine" unicode="9" horiz-adv-x="634" 
d="M586 378q0 -222 -60.5 -306.5t-215.5 -84.5q-73 0 -126.5 19t-81.5 51t-41 65.5t-13 69.5h118q0 -42 35.5 -73t108.5 -31q69 0 103.5 38t45.5 147q-64 -58 -174 -58q-242 0 -242 264q0 107 66 173.5t203 66.5q149 1 211.5 -79t62.5 -262zM306 317q107 0 159 89
q-4 116 -40 164t-113 48q-68 0 -106.5 -38.5t-38.5 -105.5q0 -77 35.5 -117t103.5 -40z" />
    <glyph glyph-name="colon" unicode=":" horiz-adv-x="265" 
d="M73 387v137h119v-137h-119zM73 27v140h119v-140h-119z" />
    <glyph glyph-name="semicolon" unicode=";" horiz-adv-x="269" 
d="M72 360v137h119v-137h-119zM25 -115q23 53 39 135q8 37 11.5 66t3.5 40v10h106q-1 -43 -23 -125q-11 -39 -25 -70.5t-23 -43.5l-8 -12h-81z" />
    <glyph glyph-name="less" unicode="&#x3c;" horiz-adv-x="523" 
d="M452 133l-401 132v123l401 131v-102l-318 -92l318 -91v-101z" />
    <glyph glyph-name="equal" unicode="=" horiz-adv-x="527" 
d="M56 335v103h415v-103h-415zM56 175v103h415v-103h-415z" />
    <glyph glyph-name="greater" unicode="&#x3e;" horiz-adv-x="523" 
d="M71 131v103l318 91l-318 92v100l401 -131v-124z" />
    <glyph glyph-name="question" unicode="?" horiz-adv-x="549" 
d="M318 167h-116v33q0 51 17 87.5t41 58.5l47.5 42t40.5 50.5t17 71.5q0 116 -105 116q-110 0 -110 -133h-112q0 234 220 234q120 0 175.5 -55.5t55.5 -152.5q0 -51 -17 -88.5t-41 -59.5l-49 -43t-43.5 -53t-20.5 -75v-33zM202 0v120h116v-120h-116z" />
    <glyph glyph-name="at" unicode="@" horiz-adv-x="881" 
d="M623 -110q-76 -28 -186 -28q-205 0 -298 111.5t-93 307.5q0 92 21.5 166.5t66.5 133t122 91t181 32.5q208 0 303 -113t95 -310q0 -146 -36.5 -207.5t-124.5 -61.5q-101 0 -126 96q-47 -56 -140 -56q-179 0 -179 226q0 228 179 228q79 0 134 -53l6 46h81v-302
q0 -117 57 -117q33 0 47.5 41t14.5 160q0 344 -311 344q-158 0 -231.5 -92t-73.5 -252q0 -73 15.5 -131.5t49.5 -107t95 -75t146 -26.5q120 0 185 32v-83zM425 132q83 0 114 59v174q-41 61 -114 61q-51 0 -76.5 -39t-25.5 -109q0 -69 25.5 -107.5t76.5 -38.5z" />
    <glyph glyph-name="A" unicode="A" horiz-adv-x="679" 
d="M8 0l268 714h127l267 -714h-129l-51 150h-305l-50 -150h-127zM222 258h232l-116 344z" />
    <glyph glyph-name="B" unicode="B" horiz-adv-x="670" 
d="M106 -2h-32v718h246q163 0 224 -43.5t61 -138.5q0 -120 -92 -163q112 -42 112 -174q0 -56 -11 -90.5t-43.5 -61t-93.5 -37.5t-159 -11h-212v1zM193 620v-199h157q76 -1 107.5 23t31.5 76q0 53 -36 76.5t-125 23.5h-135zM193 320v-227h135q105 0 143 24t38 88
q0 58 -38.5 86.5t-120.5 28.5h-157z" />
    <glyph glyph-name="C" unicode="C" horiz-adv-x="666" 
d="M624 255q-2 -143 -70.5 -208.5t-207.5 -65.5q-158 0 -229 90.5t-71 285.5q0 194 71 285t229 91q139 0 208.5 -66.5t70.5 -210.5h-117q-4 89 -43.5 129t-118.5 40q-95 0 -137 -62.5t-42 -205.5t42 -205t137 -62q77 0 117 39t45 126h116z" />
    <glyph glyph-name="D" unicode="D" horiz-adv-x="691" 
d="M74 716h226q107 0 175.5 -20.5t105.5 -68t50.5 -110t13.5 -160.5t-13.5 -160.5t-50.5 -110t-105.5 -68t-175.5 -20.5h-226v718zM194 609v-505h128q113 -1 157 55t44 198t-43.5 197t-157.5 55h-128z" />
    <glyph glyph-name="E" unicode="E" horiz-adv-x="576" 
d="M74 0v714h471v-107h-352v-187h302v-104h-302v-209h357v-107h-476z" />
    <glyph glyph-name="F" unicode="F" horiz-adv-x="547" 
d="M74 0v714h463v-107h-344v-207h294v-104h-294v-296h-119z" />
    <glyph glyph-name="G" unicode="G" horiz-adv-x="671" 
d="M616 88q0 -4 -9 -15t-31 -26.5t-51.5 -30t-77 -25t-102.5 -10.5q-159 0 -229 90t-70 285t70 286t229 91q138 0 205 -66t67 -189h-112q-2 68 -43.5 107.5t-116.5 39.5q-94 0 -136 -63t-42 -206q0 -145 43 -208t139 -63q47 0 85.5 12t56 26.5t17.5 25.5v107h-135v101h243
v-269z" />
    <glyph glyph-name="H" unicode="H" horiz-adv-x="698" 
d="M74 0v714h119v-291h312v291h119v-714h-119v313h-312v-313h-119z" />
    <glyph glyph-name="I" unicode="I" horiz-adv-x="267" 
d="M74 0v714h119v-714h-119z" />
    <glyph glyph-name="J" unicode="J" horiz-adv-x="387" 
d="M323 291q0 -59 -3 -97t-13 -73.5t-27.5 -56t-47 -36.5t-72 -22t-102.5 -6h-55v115h55q89 0 117.5 36t28.5 140l1 423h118v-423z" />
    <glyph glyph-name="K" unicode="K" horiz-adv-x="654" 
d="M74 0v714h119v-386l301 386h148l-237 -293l240 -421h-134l-183 325l-135 -167v-158h-119z" />
    <glyph glyph-name="L" unicode="L" horiz-adv-x="505" 
d="M74 0v714h119v-603h301v-111h-420z" />
    <glyph glyph-name="M" unicode="M" horiz-adv-x="926" 
d="M74 0v714h162l224 -599l224 599h168l-1 -714h-116l8 568l-227 -568h-116l-220 565l7 -565h-113z" />
    <glyph glyph-name="N" unicode="N" horiz-adv-x="729" 
d="M180 562l5 -562h-111l3 714h128l344 -554l-7 554h113v-714h-128z" />
    <glyph glyph-name="O" unicode="O" horiz-adv-x="699" 
d="M653 357q0 -195 -71.5 -285.5t-232.5 -90.5q-160 0 -231.5 90.5t-71.5 285.5q0 194 71.5 285t231.5 91q161 0 232.5 -91t71.5 -285zM167 357q0 -143 42 -205t140 -62t140.5 62t42.5 205t-42.5 205.5t-140.5 62.5q-97 0 -139.5 -62.5t-42.5 -205.5z" />
    <glyph glyph-name="P" unicode="P" horiz-adv-x="660" 
d="M74 0v716h233q179 0 250 -51t71 -190t-71 -190.5t-251 -51.5h-113v-233h-119zM193 614v-276h132q96 0 139 26t43 112t-43 112t-139 26h-132z" />
    <glyph glyph-name="Q" unicode="Q" horiz-adv-x="713" 
d="M653 357q0 -216 -88 -304l111 -99l-89 -76l-113 121q-54 -18 -125 -18q-160 0 -231.5 90.5t-71.5 285.5q0 194 71.5 285t231.5 91q161 0 232.5 -91t71.5 -285zM167 357q0 -143 42 -205t140 -62t140.5 62t42.5 205t-42.5 205.5t-140.5 62.5q-97 0 -139.5 -62.5
t-42.5 -205.5z" />
    <glyph glyph-name="R" unicode="R" horiz-adv-x="677" 
d="M74 0v716h266q159 0 225 -48.5t66 -184.5q0 -94 -31 -143.5t-100 -69.5l138 -270h-126l-122 254q-17 -1 -54 -1h-143v-253h-119zM193 611v-253h134q98 0 140 23t42 103q0 42 -11.5 68.5t-37.5 39t-55 16t-78 3.5h-134z" />
    <glyph glyph-name="S" unicode="S" horiz-adv-x="640" 
d="M599 191q0 -104 -70.5 -157.5t-208.5 -52.5q-277 3 -277 246h116q0 -141 167 -142q154 -2 154 102q0 35 -24 58.5t-62 36.5t-84 24t-92 26t-83.5 36.5t-61 61.5t-23.5 96q1 98 67 153t199 54q145 -1 206.5 -59t61.5 -171h-117q0 56 -31 90t-119 35q-149 1 -149 -99
q0 -34 24 -57.5t62 -36.5t84 -24t91.5 -26t83.5 -36.5t62 -61.5t24 -96z" />
    <glyph glyph-name="T" unicode="T" horiz-adv-x="567" 
d="M222 0l2 605h-216v109h552v-109h-218l-2 -605h-118z" />
    <glyph glyph-name="U" unicode="U" horiz-adv-x="684" 
d="M620 344q0 -76 -6 -128.5t-23.5 -100t-48 -75t-80.5 -43.5t-120 -16t-120 16t-80.5 43.5t-48 75t-23.5 100t-6 128.5v370h118v-361q0 -143 33.5 -201.5t125.5 -58.5q94 0 127 58.5t33 201.5v361h119v-370z" />
    <glyph glyph-name="V" unicode="V" horiz-adv-x="636" 
d="M3 714h131l187 -618l184 618h128l-241 -714h-146z" />
    <glyph glyph-name="W" unicode="W" horiz-adv-x="1008" 
d="M505 590l-143 -590h-143l-204 714h135l144 -608l143 608h135l147 -607l147 607h128l-207 -714h-143z" />
    <glyph glyph-name="X" unicode="X" horiz-adv-x="648" 
d="M320 273l-175 -273h-134l237 353l-237 361h132l179 -280l180 280h134l-242 -357l232 -357h-132z" />
    <glyph glyph-name="Y" unicode="Y" horiz-adv-x="625" 
d="M255 0v219l-247 495h135l171 -391l163 391h140l-245 -495v-219h-117z" />
    <glyph glyph-name="Z" unicode="Z" horiz-adv-x="563" 
d="M19 3v100l372 508h-355v100h501v-100l-376 -508h380v-100h-522z" />
    <glyph glyph-name="bracketleft" unicode="[" horiz-adv-x="392" 
d="M100 -198v958h262v-90h-159v-778h159v-90h-262z" />
    <glyph glyph-name="backslash" unicode="\" horiz-adv-x="499" 
d="M457 -40h-104l-310 840h104z" />
    <glyph glyph-name="bracketright" unicode="]" horiz-adv-x="392" 
d="M292 -198h-262v90h159v778h-159v90h262v-958z" />
    <glyph glyph-name="asciicircum" unicode="^" horiz-adv-x="441" 
d="M389 462h-83l-83 202l-84 -202h-83l129 282h75z" />
    <glyph glyph-name="underscore" unicode="_" horiz-adv-x="581" 
d="M81 0v85h419v-85h-419z" />
    <glyph glyph-name="grave" unicode="`" horiz-adv-x="381" 
d="M258 628h-103l-98 153h119z" />
    <glyph glyph-name="a" unicode="a" horiz-adv-x="598" 
d="M434 1l-12 57q-72 -72 -182 -72q-196 0 -196 168q0 101 59 143t168 42q82 0 142 -8q-2 72 -24.5 99t-92.5 27q-122 0 -122 -89h-106q0 183 222 183q39 0 70.5 -4.5t55 -11.5t41.5 -20.5t30 -25.5t20 -34t12.5 -38.5t6.5 -45.5t2.5 -48.5t0.5 -54.5v-125l11 -142h-106z
M266 83q58 0 99 27t48 57v73q-65 5 -110 5q-71 0 -105.5 -19t-34.5 -65q0 -78 103 -78z" />
    <glyph glyph-name="b" unicode="b" horiz-adv-x="610" 
d="M62 0l10 148v606h116v-264q64 61 165 61q212 0 212 -283q0 -279 -216 -279q-125 0 -176 71l-11 -60h-100zM322 449q-82 0 -134 -64v-228q45 -63 135 -63q66 0 96 43.5t30 130.5q0 181 -127 181z" />
    <glyph glyph-name="c" unicode="c" horiz-adv-x="575" 
d="M536 188q-8 -201 -240 -201q-136 0 -193 70.5t-57 211.5t57.5 213t192.5 72q124 0 180.5 -55t59.5 -162h-114q-3 122 -126 122q-71 0 -101.5 -46t-30.5 -144t30 -142.5t102 -44.5q122 0 125 106h115z" />
    <glyph glyph-name="d" unicode="d" horiz-adv-x="606" 
d="M449 0l-11 60q-51 -71 -176 -71q-216 0 -216 279q0 283 212 283q99 0 165 -61v264h115v-606l10 -148h-99zM288 94q86 0 135 61v229q-51 65 -135 65q-126 0 -126 -181q0 -87 30 -130.5t96 -43.5z" />
    <glyph glyph-name="e" unicode="e" horiz-adv-x="588" 
d="M543 167q-1 -31 -12 -59.5t-36 -57.5t-75.5 -46.5t-120.5 -17.5q-136 0 -194.5 71t-58.5 212t58.5 213t194.5 72q134 0 190.5 -74t56.5 -248h-381q5 -79 36 -114t97 -35q67 0 97 26t32 58h116zM298 460q-61 0 -92 -32t-39 -101h256q-10 72 -40 102.5t-85 30.5z" />
    <glyph glyph-name="f" unicode="f" horiz-adv-x="352" 
d="M345 762v-103h-36q-56 0 -76.5 -24t-20.5 -82v-23h131v-98h-131v-432h-116v432h-73v98h73v41q0 192 178 192z" />
    <glyph glyph-name="g" unicode="g" horiz-adv-x="606" 
d="M538 -2q0 -30 -0.5 -46.5t-5 -45.5t-13.5 -46t-27 -38.5t-43.5 -33t-65 -20t-90.5 -8.5q-50 0 -89.5 10.5t-62.5 27.5t-40 37.5t-23.5 41.5t-10 38t-3.5 27l1 11l122 1v-13t5.5 -24t15.5 -31t32.5 -23t53.5 -11q36 0 61 8.5t38 20t20 33.5t8.5 40t1.5 48v42
q-53 -55 -161 -55q-216 0 -216 279q0 283 212 283q49 0 90 -16t58.5 -30.5t29.5 -29.5l13 65h99l-10 -144v-398zM288 94q86 0 135 61v229q-51 65 -135 65q-126 0 -126 -181q0 -87 30 -130.5t96 -43.5z" />
    <glyph glyph-name="h" unicode="h" horiz-adv-x="611" 
d="M72 0v754h116v-275q60 69 183 69q96 0 137.5 -54.5t41.5 -182.5v-311h-116v315q0 65 -23.5 95t-84.5 30q-88 0 -138 -77v-363h-116z" />
    <glyph glyph-name="i" unicode="i" horiz-adv-x="256" 
d="M70 633v130h117v-130h-117zM70 0v540h116v-540h-116z" />
    <glyph glyph-name="j" unicode="j" horiz-adv-x="263" 
d="M77 633v130h117v-130h-117zM193 61q0 -42 -1 -65t-5.5 -55t-13 -49t-25.5 -37t-41.5 -30t-61 -16.5t-84.5 -6.5v109q25 0 43.5 3.5t31 7.5t20.5 15.5t12.5 20t6.5 28.5t2.5 33t0.5 42v479h115v-479z" />
    <glyph glyph-name="k" unicode="k" horiz-adv-x="538" 
d="M72 0v754h112v-474l204 260h130l-171 -205l192 -335h-130l-135 247l-90 -108v-139h-112z" />
    <glyph glyph-name="l" unicode="l" horiz-adv-x="259" 
d="M72 0v754h115v-754h-115z" />
    <glyph glyph-name="m" unicode="m" horiz-adv-x="935" 
d="M72 0v397l-10 143h100l12 -67q53 75 181 75q112 0 150 -85q20 32 66 58.5t125 26.5q94 0 136 -54.5t42 -182.5l-1 -311h-111v315q0 65 -23 95t-81 30q-81 0 -132 -72q3 -25 3 -57v-311h-107v315q0 64 -23 94.5t-80 30.5q-79 0 -131 -74v-366h-116z" />
    <glyph glyph-name="n" unicode="n" horiz-adv-x="610" 
d="M72 0v397l-10 143h100l13 -75q57 83 195 83q96 0 137.5 -55t41.5 -186v-307h-116v311q0 67 -23.5 98t-84.5 31q-86 0 -137 -75v-365h-116z" />
    <glyph glyph-name="o" unicode="o" horiz-adv-x="599" 
d="M554 269q0 -141 -58 -212t-196 -71q-139 0 -196.5 70.5t-57.5 212.5t57.5 213.5t196.5 71.5q138 1 196 -71t58 -214zM164 269q0 -99 30.5 -143t105.5 -44t105 44t30 143t-30 144t-105 45t-105.5 -45t-30.5 -144z" />
    <glyph glyph-name="p" unicode="p" horiz-adv-x="610" 
d="M72 -240v636l-10 144h100l12 -65q7 10 19 20.5t33.5 24t55 22.5t71.5 9q212 0 212 -283q0 -279 -217 -279q-106 0 -160 54v-283h-116zM322 449q-82 0 -134 -64v-230q47 -61 135 -61q66 0 96 43.5t30 130.5q0 181 -127 181z" />
    <glyph glyph-name="q" unicode="q" horiz-adv-x="606" 
d="M423 -240v284q-53 -55 -161 -55q-216 0 -216 279q0 283 212 283q116 0 177 -75l14 64h99l-10 -131v-649h-115zM288 94q86 0 135 61v229q-51 65 -135 65q-126 0 -126 -181q0 -87 30 -130.5t96 -43.5z" />
    <glyph glyph-name="r" unicode="r" horiz-adv-x="389" 
d="M72 0v384l-10 156h101l14 -90q19 39 65.5 71t129.5 32v-108q-48 0 -85 -15.5t-57 -40.5t-29 -43.5t-13 -35.5v-310h-116z" />
    <glyph glyph-name="s" unicode="s" horiz-adv-x="545" 
d="M511 149q0 -164 -239 -163q-116 1 -177 52.5t-61 144.5h115q0 -48 32 -73t90 -26q65 -1 93.5 17t29.5 54q1 33 -35 50t-87 24.5t-103 20t-88 48.5t-37 97q-1 77 56.5 118.5t172.5 40.5q225 -1 225 -184h-114q0 88 -108 89q-116 3 -116 -69q0 -26 26 -41.5t65 -20.5
t84.5 -15.5t84.5 -24.5t65 -49.5t26 -89.5z" />
    <glyph glyph-name="t" unicode="t" horiz-adv-x="350" 
d="M334 -3h-48q-67 0 -108.5 15.5t-60.5 49.5t-24.5 69t-5.5 94v218h-70v97h70v154l116 19v-173h128v-97h-128v-213q0 -70 18 -98.5t74 -28.5h39v-106z" />
    <glyph glyph-name="u" unicode="u" horiz-adv-x="605" 
d="M447 0l-15 84q-18 -33 -65 -62.5t-131 -29.5q-95 0 -137 55t-42 182l1 311h115v-313q0 -65 24 -96t85 -31q89 0 138 85v355h116v-391l11 -149h-100z" />
    <glyph glyph-name="v" unicode="v" horiz-adv-x="546" 
d="M8 540h129l137 -431l136 431h128l-205 -540h-120z" />
    <glyph glyph-name="w" unicode="w" horiz-adv-x="842" 
d="M419 427l-114 -427h-130l-169 540h124l110 -424l113 424h135l119 -425l106 425h123l-164 -540h-132z" />
    <glyph glyph-name="x" unicode="x" horiz-adv-x="547" 
d="M271 185l-123 -185h-134l190 267l-194 273h138l129 -193l128 193h133l-193 -275l187 -265h-138z" />
    <glyph glyph-name="y" unicode="y" horiz-adv-x="551" 
d="M180 -228l71 228h-50l-193 540h129l142 -453l142 453h122l-258 -768h-105z" />
    <glyph glyph-name="z" unicode="z" horiz-adv-x="466" 
d="M20 3v101l287 332h-277v102h412v-101l-287 -333l287 1v-102h-422z" />
    <glyph glyph-name="braceleft" unicode="{" horiz-adv-x="429" 
d="M159 584q0 59 7.5 90.5t34.5 53t71.5 27.5t126.5 6v-85q-81 0 -105 -24.5t-24 -102.5l-1 -176q0 -24 -8 -43t-21 -28.5t-19.5 -13.5t-12.5 -6q4 -1 8 -3t15 -9t18.5 -16.5t14 -26t6.5 -36.5v-180q0 -76 24 -99.5t105 -23.5v-85q-81 0 -126 7t-72 29t-34.5 54.5t-7.5 91.5
v201q0 32 -16.5 44t-70.5 12v80q54 0 70.5 11.5t16.5 43.5v207z" />
    <glyph glyph-name="bar" unicode="|" horiz-adv-x="226" 
d="M72 -193v1013h82v-1013h-82z" />
    <glyph glyph-name="braceright" unicode="}" horiz-adv-x="429" 
d="M270 -20q0 -59 -7.5 -90.5t-34.5 -53t-71.5 -27.5t-126.5 -6v85q81 0 104.5 24t24.5 103l1 176q0 67 60 91q-3 1 -7.5 3t-15 9t-18 16.5t-14 26.5t-6.5 37v179q0 76 -24 99.5t-105 23.5v85q81 0 126 -7t72 -29t34.5 -54.5t7.5 -91.5v-201q0 -32 16.5 -44t70.5 -12v-80
q-54 0 -70.5 -11.5t-16.5 -43.5v-207z" />
    <glyph glyph-name="asciitilde" unicode="~" horiz-adv-x="545" 
d="M41 235q0 151 132 151q50 0 103.5 -27.5t87.5 -27.5t51.5 19t17.5 36h71q0 -151 -132 -151q-50 0 -103.5 27.5t-86.5 27.5q-34 0 -51.5 -19t-17.5 -36h-72z" />
    <glyph glyph-name="exclamdown" unicode="&#xa1;" horiz-adv-x="260" 
d="M72 414v126h116v-126h-116zM72 -174l4 538h107l5 -538h-116z" />
    <glyph glyph-name="cent" unicode="&#xa2;" horiz-adv-x="575" 
d="M242 -20v85q-105 14 -150.5 84t-45.5 196q0 125 45.5 195.5t150.5 84.5v85h103v-84q185 -19 191 -214h-114q-3 94 -77 116v-366q73 20 76 101h115q-8 -179 -191 -199v-84h-103zM164 345q0 -78 18 -121.5t60 -58.5v361q-42 -15 -60 -59.5t-18 -121.5z" />
    <glyph glyph-name="sterling" unicode="&#xa3;" horiz-adv-x="553" 
d="M244 244q0 -4 0.5 -13t0.5 -14q0 -82 -53 -125l322 4v-100h-488v95q6 1 13 3t24.5 10.5t30 19.5t23 32.5t10.5 47.5q0 14 -2 40h-108v89h87q-5 14 -16 42t-17 44.5t-11 43t-5 53.5q0 87 59 139.5t175 52.5q234 0 234 -220h-115q0 55 -31 87t-84 32t-84 -30.5t-31 -83.5
q0 -26 7 -50.5t21 -58.5t20 -51h157v-89h-139z" />
    <glyph glyph-name="currency" unicode="&#xa4;" horiz-adv-x="677" 
d="M561 482q34 -61 34 -159q0 -94 -32 -154l69 -69l-70 -69l-65 66q-59 -37 -158 -37q-98 0 -157 37l-66 -66l-69 69l68 68q-31 59 -31 155q0 93 30 153l-68 69l69 70l65 -65q59 39 159 40q96 0 154 -36l66 66l70 -70zM200 323q0 -163 139 -163t139 163q0 167 -139 167
t-139 -167z" />
    <glyph glyph-name="yen" unicode="&#xa5;" horiz-adv-x="595" 
d="M242 0v162h-112v82h112v42h-112v82h83l-205 342h132l159 -307l151 307h137l-204 -342h82v-82h-110v-42h110v-82h-110v-162h-113z" />
    <glyph glyph-name="brokenbar" unicode="&#xa6;" horiz-adv-x="226" 
d="M72 395v425h82v-425h-82zM154 245v-425h-82v425h82z" />
    <glyph glyph-name="section" unicode="&#xa7;" horiz-adv-x="539" 
d="M505 379q0 -77 -55 -121q52 -39 52 -114q0 -162 -237 -162q-124 0 -177.5 44.5t-53.5 138.5h104q0 -105 126 -105t126 77q0 30 -19.5 49t-50 28.5t-68 16t-75 16.5t-68 25.5t-50 46.5t-19.5 76q0 79 58 122q-55 38 -55 113q0 154 225 154q121 0 172.5 -42t51.5 -128h-104
q0 44 -25.5 68t-92.5 24q-116 0 -116 -76q0 -38 36 -57t88 -26.5t103.5 -19.5t87.5 -48.5t36 -99.5zM151 396q0 -22 11 -37.5t35 -24.5t45 -14t58 -11.5t58 -11.5q36 28 36 75q0 20 -9 35t-21.5 24t-35.5 16.5t-41 11.5t-48 10t-48 10q-40 -29 -40 -83z" />
    <glyph glyph-name="dieresis" unicode="&#xa8;" horiz-adv-x="431" 
d="M62 627v136h107v-136h-107zM248 627v136h107v-136h-107z" />
    <glyph glyph-name="copyright" unicode="&#xa9;" horiz-adv-x="833" 
d="M787 348q0 -83 -19 -150.5t-60.5 -122t-115.5 -84.5t-176 -30q-101 0 -174.5 30t-115 84.5t-61 122t-19.5 150.5q0 66 11.5 122.5t39 107t69.5 86t105.5 56t144.5 20.5q102 0 176 -30.5t115.5 -86t60.5 -123.5t19 -152zM124 348q0 -317 292 -317q293 0 293 317
q0 322 -293 322q-81 0 -139.5 -25t-91 -71t-47 -101.5t-14.5 -124.5zM584 292q-1 -86 -42.5 -125t-122.5 -39q-94 0 -137.5 53t-43.5 169t43.5 169.5t137.5 53.5q165 0 166 -166h-79q-3 98 -87 98q-52 0 -76 -36t-24 -119t24 -119t76 -36q83 0 87 97h78z" />
    <glyph glyph-name="ordfeminine" unicode="&#xaa;" horiz-adv-x="413" 
d="M300 361l-8 36q-48 -46 -124 -46q-138 0 -138 118q0 128 159 128q41 0 96 -5q-2 48 -17 66.5t-61 18.5q-82 0 -82 -60h-77q0 128 155 128q34 0 60 -5.5t43.5 -13t29.5 -23t18.5 -29t10 -37.5t4 -41.5t0.5 -48.5v-87l8 -99h-77zM186 421q35 0 62 15t37 34v55q-36 4 -73 4
q-49 0 -72.5 -12.5t-23.5 -43.5q0 -52 70 -52z" />
    <glyph glyph-name="guillemotleft" unicode="&#xab;" horiz-adv-x="610" 
d="M195 95l-117 160v23l117 167h131l-136 -180l136 -170h-131zM402 95l-117 160v23l117 167h131l-136 -180l136 -170h-131z" />
    <glyph glyph-name="registered" unicode="&#xae;" horiz-adv-x="833" 
d="M787 348q0 -83 -19 -150.5t-60.5 -122t-115.5 -84.5t-176 -30q-101 0 -174.5 30t-115 84.5t-61 122t-19.5 150.5q0 66 11.5 122.5t39 107t69.5 86t105.5 56t144.5 20.5q102 0 176 -30.5t115.5 -86t60.5 -123.5t19 -152zM124 348q0 -317 292 -317q293 0 293 317
q0 322 -293 322q-81 0 -139.5 -25t-91 -71t-47 -101.5t-14.5 -124.5zM262 139v421h166q87 0 125 -29.5t38 -108.5q0 -57 -18.5 -86.5t-59.5 -40.5l74 -156h-83l-64 147h-101v-147h-77zM339 497v-149h82q46 0 68 14t22 60t-22.5 60.5t-67.5 14.5h-82z" />
    <glyph glyph-name="macron" unicode="&#xaf;" horiz-adv-x="440" 
d="M60 735h275v-82h-275v82z" />
    <glyph glyph-name="degree" unicode="&#xb0;" horiz-adv-x="354" 
d="M294 605q0 -122 -117 -122t-117 122q0 123 117 123t117 -123zM127 605q0 -62 50 -62t50 62q0 63 -50 63t-50 -63z" />
    <glyph glyph-name="plusminus" unicode="&#xb1;" horiz-adv-x="525" 
d="M211 217v108h-150v103h150v106h103v-106h150v-103h-150v-108h-103zM61 85v102h403v-102h-403z" />
    <glyph glyph-name="uni00B2" unicode="&#xb2;" horiz-adv-x="421" 
d="M24 312v82l136 109l44.5 36.5t35 32.5t31 36.5t16.5 35.5t8 43q0 35 -21.5 56t-65.5 21q-43 0 -67.5 -26t-24.5 -66h-95q0 82 45.5 130.5t140.5 48.5q99 0 143 -44t44 -113q0 -38 -9 -69t-30 -59.5t-38 -46t-50 -48.5q-9 -8 -13 -12l-74 -64l212 4v-87h-368z" />
    <glyph glyph-name="uni00B3" unicode="&#xb3;" horiz-adv-x="454" 
d="M276 641q74 -14 106.5 -56t32.5 -114q0 -77 -46.5 -124.5t-150.5 -47.5q-102 0 -147.5 47t-45.5 121h97q0 -35 24 -58t70 -23q98 0 98 92q0 46 -29 72t-84 26l-62 -4v68l134 104l-225 -3v88h357v-83z" />
    <glyph glyph-name="acute" unicode="&#xb4;" horiz-adv-x="381" 
d="M48 628l81 153h120l-98 -153h-103z" />
    <glyph glyph-name="paragraph" unicode="&#xb6;" horiz-adv-x="642" 
d="M313 0v286q-159 3 -219.5 51.5t-60.5 185.5t63 187t226 50h248v-760h-83v671h-91v-671h-83zM143 524q0 -87 37.5 -116t132.5 -30v292q-95 -2 -132.5 -31t-37.5 -115z" />
    <glyph glyph-name="periodcentered" unicode="&#xb7;" horiz-adv-x="263" 
d="M73 231v136h119v-136h-119z" />
    <glyph glyph-name="cedilla" unicode="&#xb8;" horiz-adv-x="399" 
d="M291 -144q0 -51 -33.5 -74t-116.5 -23q-23 0 -43.5 2t-29.5 4l-8 2v68q0 -1 5 -2.5t17.5 -3t27.5 -1.5q37 0 53 8.5t16 30.5q0 43 -86 43h-4l43 93h106l-30 -62q83 -11 83 -85z" />
    <glyph glyph-name="uni00B9" unicode="&#xb9;" horiz-adv-x="260" 
d="M101 309v412l-93 -41v100l128 55h58v-526h-93z" />
    <glyph glyph-name="ordmasculine" unicode="&#xba;" horiz-adv-x="410" 
d="M382 548q0 -99 -40 -148t-137 -49t-137 49t-40 148t40 149t137 50q96 0 136.5 -50t40.5 -149zM113 548q0 -67 20.5 -97t71.5 -30q50 0 70.5 30t20.5 97q0 68 -20.5 98.5t-70.5 30.5q-51 0 -71.5 -30.5t-20.5 -98.5z" />
    <glyph glyph-name="guillemotright" unicode="&#xbb;" horiz-adv-x="610" 
d="M208 95h-131l135 170l-135 180h131l117 -167v-23zM415 95h-131l135 170l-135 180h131l117 -167v-23z" />
    <glyph glyph-name="onequarter" unicode="&#xbc;" horiz-adv-x="935" 
d="M104 -40l495 814h105l-495 -814h-105zM101 235v412l-93 -41v100l128 55h58v-526h-93zM765 0v99h-265v83l212 342h146v-342h60v-83h-60v-99h-93zM765 182v278l-160 -278h160z" />
    <glyph glyph-name="onehalf" unicode="&#xbd;" horiz-adv-x="962" 
d="M104 -40l495 814h105l-495 -814h-105zM101 235v412l-93 -41v100l128 55h58v-526h-93zM565 3v82l136 109l44.5 36.5t35 32.5t31 36.5t16.5 35.5t8 43q0 35 -21.5 56t-65.5 21q-43 0 -67.5 -26t-24.5 -66h-95q0 82 45.5 130.5t140.5 48.5q99 0 143 -44t44 -113
q0 -38 -9 -69t-30 -59.5t-38 -46t-50 -48.5q-9 -8 -13 -12l-74 -64l212 4v-87h-368z" />
    <glyph glyph-name="threequarters" unicode="&#xbe;" horiz-adv-x="1110" 
d="M279 -40l495 814h105l-495 -814h-105zM276 567q74 -14 106.5 -56t32.5 -114q0 -77 -46.5 -124.5t-150.5 -47.5q-102 0 -147.5 47t-45.5 121h97q0 -35 24 -58t70 -23q98 0 98 92q0 46 -29 72t-84 26l-62 -4v68l134 104l-225 -3v88h357v-83zM940 0v99h-265v83l212 342h146
v-342h60v-83h-60v-99h-93zM940 182v278l-160 -278h160z" />
    <glyph glyph-name="questiondown" unicode="&#xbf;" horiz-adv-x="541" 
d="M348 540v-119h-116v119h116zM232 373h116l-1 -33q0 -50 -17 -87t-40.5 -58.5l-47.5 -41.5t-41 -50.5t-17 -72.5q0 -115 106 -115q109 0 109 133h112q0 -235 -220 -235q-119 0 -174.5 56t-55.5 153q0 51 16.5 88t41 59l49 43t43 53t20.5 75z" />
    <glyph glyph-name="Agrave" unicode="&#xc0;" horiz-adv-x="679" 
d="M399 770h-121l-98 128h137zM8 0l268 714h127l267 -714h-129l-51 150h-305l-50 -150h-127zM222 258h232l-116 344z" />
    <glyph glyph-name="Aacute" unicode="&#xc1;" horiz-adv-x="679" 
d="M277 769l82 128h138l-99 -128h-121zM8 0l268 714h127l267 -714h-129l-51 150h-305l-50 -150h-127zM222 258h232l-116 344z" />
    <glyph glyph-name="Acircumflex" unicode="&#xc2;" horiz-adv-x="679" 
d="M518 769h-113l-65 67l-64 -67h-110l110 130h128zM8 0l268 714h127l267 -714h-129l-51 150h-305l-50 -150h-127zM222 258h232l-116 344z" />
    <glyph glyph-name="Atilde" unicode="&#xc3;" horiz-adv-x="679" 
d="M511 898q0 -133 -103 -133q-40 0 -70.5 23t-51.5 23q-22 0 -31 -14t-9 -30h-77q0 60 22 96.5t82 36.5q40 0 70.5 -23t50.5 -23q22 0 31 14t9 30h77zM8 0l268 714h127l267 -714h-129l-51 150h-305l-50 -150h-127zM222 258h232l-116 344z" />
    <glyph glyph-name="Adieresis" unicode="&#xc4;" horiz-adv-x="679" 
d="M184 769v135h117v-135h-117zM378 769v135h117v-135h-117zM8 0l268 714h127l267 -714h-129l-51 150h-305l-50 -150h-127zM222 258h232l-116 344z" />
    <glyph glyph-name="Aring" unicode="&#xc5;" horiz-adv-x="679" 
d="M457 862q0 -51 -31 -79.5t-84 -28.5q-54 0 -85 28.5t-31 79.5t31 79.5t85 28.5q53 0 84 -28.5t31 -79.5zM305 862q0 -17 10 -27.5t27 -10.5q16 0 26 10.5t10 27.5t-10 27.5t-26 10.5q-17 0 -27 -10.5t-10 -27.5zM8 0l268 714h127l267 -714h-129l-51 150h-305l-50 -150
h-127zM222 258h232l-116 344z" />
    <glyph glyph-name="AE" unicode="&#xc6;" horiz-adv-x="949" 
d="M8 0l367 714h542v-107h-352v-187h302v-104h-302v-209h358v-107h-476v165h-226l-82 -165h-131zM447 264v354l-177 -354h177z" />
    <glyph glyph-name="Ccedilla" unicode="&#xc7;" horiz-adv-x="666" 
d="M466 -150q0 -51 -33.5 -74t-116.5 -23q-23 0 -43.5 2t-28.5 4l-9 2v68q0 -1 5 -2.5t17.5 -3t27.5 -1.5q37 0 53 8.5t16 30.5q0 43 -86 43h-4l36 79q-134 13 -194 103.5t-60 270.5q0 194 71 285t229 91q139 0 208.5 -66.5t70.5 -210.5h-117q-4 89 -43.5 129t-118.5 40
q-95 0 -137 -62.5t-42 -205.5t42 -205t137 -62q77 0 117 39t45 126h116q-2 -127 -55.5 -192.5t-161.5 -77.5l-24 -50q83 -11 83 -85z" />
    <glyph glyph-name="Egrave" unicode="&#xc8;" horiz-adv-x="576" 
d="M368 770h-121l-98 128h137zM74 0v714h471v-107h-352v-187h302v-104h-302v-209h357v-107h-476z" />
    <glyph glyph-name="Eacute" unicode="&#xc9;" horiz-adv-x="576" 
d="M246 769l82 128h138l-99 -128h-121zM74 0v714h471v-107h-352v-187h302v-104h-302v-209h357v-107h-476z" />
    <glyph glyph-name="Ecircumflex" unicode="&#xca;" horiz-adv-x="576" 
d="M487 769h-113l-65 67l-64 -67h-110l110 130h128zM74 0v714h471v-107h-352v-187h302v-104h-302v-209h357v-107h-476z" />
    <glyph glyph-name="Edieresis" unicode="&#xcb;" horiz-adv-x="576" 
d="M153 769v135h117v-135h-117zM347 769v135h117v-135h-117zM74 0v714h471v-107h-352v-187h302v-104h-302v-209h357v-107h-476z" />
    <glyph glyph-name="Igrave" unicode="&#xcc;" horiz-adv-x="267" 
d="M193 770h-121l-98 128h137zM74 0v714h119v-714h-119z" />
    <glyph glyph-name="Iacute" unicode="&#xcd;" horiz-adv-x="267" 
d="M71 769l82 128h138l-99 -128h-121zM74 0v714h119v-714h-119z" />
    <glyph glyph-name="Icircumflex" unicode="&#xce;" horiz-adv-x="267" 
d="M312 769h-113l-65 67l-64 -67h-110l110 130h128zM74 0v714h119v-714h-119z" />
    <glyph glyph-name="Idieresis" unicode="&#xcf;" horiz-adv-x="267" 
d="M-22 769v135h117v-135h-117zM172 769v135h117v-135h-117zM74 0v714h119v-714h-119z" />
    <glyph glyph-name="Eth" unicode="&#xd0;" horiz-adv-x="691" 
d="M74 316h-68v81h68v319h226q107 0 175.5 -20.5t105.5 -68t50.5 -110t13.5 -160.5t-13.5 -160.5t-50.5 -110t-105.5 -68t-175.5 -20.5h-226v318zM194 316v-212h128q113 -1 157 55t44 198t-43.5 197t-157.5 55h-128v-212h116v-81h-116z" />
    <glyph glyph-name="Ntilde" unicode="&#xd1;" horiz-adv-x="729" 
d="M538 898q0 -133 -103 -133q-40 0 -70.5 23t-51.5 23q-22 0 -31 -14t-9 -30h-77q0 60 22 96.5t82 36.5q40 0 70.5 -23t50.5 -23q22 0 31 14t9 30h77zM180 562l5 -562h-111l3 714h128l344 -554l-7 554h113v-714h-128z" />
    <glyph glyph-name="Ograve" unicode="&#xd2;" horiz-adv-x="699" 
d="M409 775h-121l-98 128h137zM653 357q0 -195 -71.5 -285.5t-232.5 -90.5q-160 0 -231.5 90.5t-71.5 285.5q0 194 71.5 285t231.5 91q161 0 232.5 -91t71.5 -285zM167 357q0 -143 42 -205t140 -62t140.5 62t42.5 205t-42.5 205.5t-140.5 62.5q-97 0 -139.5 -62.5
t-42.5 -205.5z" />
    <glyph glyph-name="Oacute" unicode="&#xd3;" horiz-adv-x="699" 
d="M287 774l82 128h138l-99 -128h-121zM653 357q0 -195 -71.5 -285.5t-232.5 -90.5q-160 0 -231.5 90.5t-71.5 285.5q0 194 71.5 285t231.5 91q161 0 232.5 -91t71.5 -285zM167 357q0 -143 42 -205t140 -62t140.5 62t42.5 205t-42.5 205.5t-140.5 62.5q-97 0 -139.5 -62.5
t-42.5 -205.5z" />
    <glyph glyph-name="Ocircumflex" unicode="&#xd4;" horiz-adv-x="699" 
d="M528 774h-113l-65 67l-64 -67h-110l110 130h128zM653 357q0 -195 -71.5 -285.5t-232.5 -90.5q-160 0 -231.5 90.5t-71.5 285.5q0 194 71.5 285t231.5 91q161 0 232.5 -91t71.5 -285zM167 357q0 -143 42 -205t140 -62t140.5 62t42.5 205t-42.5 205.5t-140.5 62.5
q-97 0 -139.5 -62.5t-42.5 -205.5z" />
    <glyph glyph-name="Otilde" unicode="&#xd5;" horiz-adv-x="699" 
d="M521 903q0 -133 -103 -133q-40 0 -70.5 23t-51.5 23q-22 0 -31 -14t-9 -30h-77q0 60 22 96.5t82 36.5q40 0 70.5 -23t50.5 -23q22 0 31 14t9 30h77zM653 357q0 -195 -71.5 -285.5t-232.5 -90.5q-160 0 -231.5 90.5t-71.5 285.5q0 194 71.5 285t231.5 91q161 0 232.5 -91
t71.5 -285zM167 357q0 -143 42 -205t140 -62t140.5 62t42.5 205t-42.5 205.5t-140.5 62.5q-97 0 -139.5 -62.5t-42.5 -205.5z" />
    <glyph glyph-name="Odieresis" unicode="&#xd6;" horiz-adv-x="699" 
d="M194 774v135h117v-135h-117zM388 774v135h117v-135h-117zM653 357q0 -195 -71.5 -285.5t-232.5 -90.5q-160 0 -231.5 90.5t-71.5 285.5q0 194 71.5 285t231.5 91q161 0 232.5 -91t71.5 -285zM167 357q0 -143 42 -205t140 -62t140.5 62t42.5 205t-42.5 205.5t-140.5 62.5
q-97 0 -139.5 -62.5t-42.5 -205.5z" />
    <glyph glyph-name="multiply" unicode="&#xd7;" horiz-adv-x="498" 
d="M375 110l-126 130l-126 -130l-66 64l128 132l-128 133l66 63l125 -130l126 130l67 -63l-129 -133l129 -132z" />
    <glyph glyph-name="Oslash" unicode="&#xd8;" horiz-adv-x="699" 
d="M32 -10l70 103q-56 88 -56 264q0 194 71.5 285t231.5 91q98 0 165 -35l19 28h128l-68 -100q60 -91 60 -269q0 -195 -71.5 -285.5t-232.5 -90.5q-102 0 -170 37l-19 -28h-128zM167 357q0 -89 15 -146l266 391q-37 23 -99 23q-97 0 -139.5 -62.5t-42.5 -205.5zM532 357
q0 93 -18 153l-269 -395q40 -25 104 -25q98 0 140.5 62t42.5 205z" />
    <glyph glyph-name="Ugrave" unicode="&#xd9;" horiz-adv-x="684" 
d="M401 770h-121l-98 128h137zM620 344q0 -76 -6 -128.5t-23.5 -100t-48 -75t-80.5 -43.5t-120 -16t-120 16t-80.5 43.5t-48 75t-23.5 100t-6 128.5v370h118v-361q0 -143 33.5 -201.5t125.5 -58.5q94 0 127 58.5t33 201.5v361h119v-370z" />
    <glyph glyph-name="Uacute" unicode="&#xda;" horiz-adv-x="684" 
d="M279 769l82 128h138l-99 -128h-121zM620 344q0 -76 -6 -128.5t-23.5 -100t-48 -75t-80.5 -43.5t-120 -16t-120 16t-80.5 43.5t-48 75t-23.5 100t-6 128.5v370h118v-361q0 -143 33.5 -201.5t125.5 -58.5q94 0 127 58.5t33 201.5v361h119v-370z" />
    <glyph glyph-name="Ucircumflex" unicode="&#xdb;" horiz-adv-x="684" 
d="M520 769h-113l-65 67l-64 -67h-110l110 130h128zM620 344q0 -76 -6 -128.5t-23.5 -100t-48 -75t-80.5 -43.5t-120 -16t-120 16t-80.5 43.5t-48 75t-23.5 100t-6 128.5v370h118v-361q0 -143 33.5 -201.5t125.5 -58.5q94 0 127 58.5t33 201.5v361h119v-370z" />
    <glyph glyph-name="Udieresis" unicode="&#xdc;" horiz-adv-x="684" 
d="M186 769v135h117v-135h-117zM380 769v135h117v-135h-117zM620 344q0 -76 -6 -128.5t-23.5 -100t-48 -75t-80.5 -43.5t-120 -16t-120 16t-80.5 43.5t-48 75t-23.5 100t-6 128.5v370h118v-361q0 -143 33.5 -201.5t125.5 -58.5q94 0 127 58.5t33 201.5v361h119v-370z" />
    <glyph glyph-name="Yacute" unicode="&#xdd;" horiz-adv-x="625" 
d="M248 769l82 128h138l-99 -128h-121zM255 0v219l-247 495h135l171 -391l163 391h140l-245 -495v-219h-117z" />
    <glyph glyph-name="Thorn" unicode="&#xde;" horiz-adv-x="651" 
d="M74 0v714h122l-1 -115h138q158 0 222 -50t64 -189q0 -140 -64 -189t-225 -49h-135v-122h-121zM195 495v-270l141 -1q84 0 124.5 26.5t40.5 110.5q0 82 -40.5 108t-124.5 26h-141z" />
    <glyph glyph-name="germandbls" unicode="&#xdf;" horiz-adv-x="599" 
d="M72 0v532q0 54 8.5 91t32 70.5t70.5 50.5t119 18q127 0 180.5 -51.5t53.5 -147.5q0 -42 -12 -75t-27 -50.5t-35 -29.5t-30 -15.5t-17 -4.5q7 0 17.5 -1.5t34 -11.5t41.5 -27.5t32.5 -54t14.5 -86.5q0 -117 -64.5 -162t-248.5 -45v95q110 0 153 25.5t43 95.5q0 31 -10 53
t-25 34.5t-41.5 19.5t-50 9.5t-59.5 3.5v103q166 0 166 107q0 59 -26.5 89t-89.5 30q-62 -1 -88 -31t-26 -88v-546h-116z" />
    <glyph glyph-name="agrave" unicode="&#xe0;" horiz-adv-x="598" 
d="M352 628h-103l-98 153h119zM434 1l-12 57q-72 -72 -182 -72q-196 0 -196 168q0 101 59 143t168 42q82 0 142 -8q-2 72 -24.5 99t-92.5 27q-122 0 -122 -89h-106q0 183 222 183q39 0 70.5 -4.5t55 -11.5t41.5 -20.5t30 -25.5t20 -34t12.5 -38.5t6.5 -45.5t2.5 -48.5
t0.5 -54.5v-125l11 -142h-106zM266 83q58 0 99 27t48 57v73q-65 5 -110 5q-71 0 -105.5 -19t-34.5 -65q0 -78 103 -78z" />
    <glyph glyph-name="aacute" unicode="&#xe1;" horiz-adv-x="598" 
d="M246 628l81 153h120l-98 -153h-103zM434 1l-12 57q-72 -72 -182 -72q-196 0 -196 168q0 101 59 143t168 42q82 0 142 -8q-2 72 -24.5 99t-92.5 27q-122 0 -122 -89h-106q0 183 222 183q39 0 70.5 -4.5t55 -11.5t41.5 -20.5t30 -25.5t20 -34t12.5 -38.5t6.5 -45.5
t2.5 -48.5t0.5 -54.5v-125l11 -142h-106zM266 83q58 0 99 27t48 57v73q-65 5 -110 5q-71 0 -105.5 -19t-34.5 -65q0 -78 103 -78z" />
    <glyph glyph-name="acircumflex" unicode="&#xe2;" horiz-adv-x="598" 
d="M473 627h-109l-67 78l-66 -78h-107l116 150h114zM434 1l-12 57q-72 -72 -182 -72q-196 0 -196 168q0 101 59 143t168 42q82 0 142 -8q-2 72 -24.5 99t-92.5 27q-122 0 -122 -89h-106q0 183 222 183q39 0 70.5 -4.5t55 -11.5t41.5 -20.5t30 -25.5t20 -34t12.5 -38.5
t6.5 -45.5t2.5 -48.5t0.5 -54.5v-125l11 -142h-106zM266 83q58 0 99 27t48 57v73q-65 5 -110 5q-71 0 -105.5 -19t-34.5 -65q0 -78 103 -78z" />
    <glyph glyph-name="atilde" unicode="&#xe3;" horiz-adv-x="598" 
d="M470 759q0 -132 -102 -132q-40 0 -73 23.5t-51 23.5q-21 0 -30 -14.5t-9 -29.5h-77q0 133 103 133q39 0 72 -24t52 -24q21 0 30 14.5t9 29.5h76zM434 1l-12 57q-72 -72 -182 -72q-196 0 -196 168q0 101 59 143t168 42q82 0 142 -8q-2 72 -24.5 99t-92.5 27
q-122 0 -122 -89h-106q0 183 222 183q39 0 70.5 -4.5t55 -11.5t41.5 -20.5t30 -25.5t20 -34t12.5 -38.5t6.5 -45.5t2.5 -48.5t0.5 -54.5v-125l11 -142h-106zM266 83q58 0 99 27t48 57v73q-65 5 -110 5q-71 0 -105.5 -19t-34.5 -65q0 -78 103 -78z" />
    <glyph glyph-name="adieresis" unicode="&#xe4;" horiz-adv-x="598" 
d="M152 627v136h107v-136h-107zM338 627v136h107v-136h-107zM434 1l-12 57q-72 -72 -182 -72q-196 0 -196 168q0 101 59 143t168 42q82 0 142 -8q-2 72 -24.5 99t-92.5 27q-122 0 -122 -89h-106q0 183 222 183q39 0 70.5 -4.5t55 -11.5t41.5 -20.5t30 -25.5t20 -34
t12.5 -38.5t6.5 -45.5t2.5 -48.5t0.5 -54.5v-125l11 -142h-106zM266 83q58 0 99 27t48 57v73q-65 5 -110 5q-71 0 -105.5 -19t-34.5 -65q0 -78 103 -78z" />
    <glyph glyph-name="aring" unicode="&#xe5;" horiz-adv-x="598" 
d="M414 716q0 -50 -30.5 -78t-82.5 -28q-53 0 -83.5 28t-30.5 78t30.5 78t83.5 28q52 0 82.5 -28t30.5 -78zM264 716q0 -17 10 -27.5t27 -10.5q16 0 26 10.5t10 27.5t-9.5 27t-26.5 10t-27 -10t-10 -27zM434 1l-12 57q-72 -72 -182 -72q-196 0 -196 168q0 101 59 143t168 42
q82 0 142 -8q-2 72 -24.5 99t-92.5 27q-122 0 -122 -89h-106q0 183 222 183q39 0 70.5 -4.5t55 -11.5t41.5 -20.5t30 -25.5t20 -34t12.5 -38.5t6.5 -45.5t2.5 -48.5t0.5 -54.5v-125l11 -142h-106zM266 83q58 0 99 27t48 57v73q-65 5 -110 5q-71 0 -105.5 -19t-34.5 -65
q0 -78 103 -78z" />
    <glyph glyph-name="ae" unicode="&#xe6;" horiz-adv-x="939" 
d="M895 167q-1 -24 -7.5 -47t-23.5 -48t-43 -43.5t-70 -30.5t-101 -12q-150 0 -209 90q-72 -89 -201 -89q-196 0 -196 167q0 100 58.5 140t168.5 40h129q1 17 7 45q-7 41 -33.5 59.5t-77.5 18.5q-122 0 -122 -89h-106q0 183 222 183q123 0 174 -60q61 63 186 63
q135 0 191 -74t56 -248h-380q5 -79 35.5 -114t96.5 -35q68 0 98 26t31 58h117zM649 460q-61 0 -91.5 -32t-38.5 -101h256q-10 72 -40.5 102.5t-85.5 30.5zM406 165q-8 35 -9 76h-94q-73 0 -106.5 -17t-33.5 -63q0 -78 103 -78q56 0 94 26t46 56z" />
    <glyph glyph-name="ccedilla" unicode="&#xe7;" horiz-adv-x="575" 
d="M417 -145q0 -51 -33.5 -74t-116.5 -23q-23 0 -43.5 2t-29.5 4l-8 2v68q0 -1 5 -2.5t17.5 -3t27.5 -1.5q37 0 53 8.5t16 30.5q0 43 -86 43h-4l37 80q-111 11 -158.5 81t-47.5 199q0 141 57.5 213t192.5 72q124 0 180.5 -55t59.5 -162h-114q-3 122 -126 122
q-71 0 -101.5 -46t-30.5 -144t30 -142.5t102 -44.5q122 0 125 106h115q-8 -174 -178 -197l-24 -51q83 -11 83 -85z" />
    <glyph glyph-name="egrave" unicode="&#xe8;" horiz-adv-x="588" 
d="M353 628h-103l-98 153h119zM543 167q-1 -31 -12 -59.5t-36 -57.5t-75.5 -46.5t-120.5 -17.5q-136 0 -194.5 71t-58.5 212t58.5 213t194.5 72q134 0 190.5 -74t56.5 -248h-381q5 -79 36 -114t97 -35q67 0 97 26t32 58h116zM298 460q-61 0 -92 -32t-39 -101h256
q-10 72 -40 102.5t-85 30.5z" />
    <glyph glyph-name="eacute" unicode="&#xe9;" horiz-adv-x="588" 
d="M247 628l81 153h120l-98 -153h-103zM543 167q-1 -31 -12 -59.5t-36 -57.5t-75.5 -46.5t-120.5 -17.5q-136 0 -194.5 71t-58.5 212t58.5 213t194.5 72q134 0 190.5 -74t56.5 -248h-381q5 -79 36 -114t97 -35q67 0 97 26t32 58h116zM298 460q-61 0 -92 -32t-39 -101h256
q-10 72 -40 102.5t-85 30.5z" />
    <glyph glyph-name="ecircumflex" unicode="&#xea;" horiz-adv-x="588" 
d="M474 627h-109l-67 78l-66 -78h-107l116 150h114zM543 167q-1 -31 -12 -59.5t-36 -57.5t-75.5 -46.5t-120.5 -17.5q-136 0 -194.5 71t-58.5 212t58.5 213t194.5 72q134 0 190.5 -74t56.5 -248h-381q5 -79 36 -114t97 -35q67 0 97 26t32 58h116zM298 460q-61 0 -92 -32
t-39 -101h256q-10 72 -40 102.5t-85 30.5z" />
    <glyph glyph-name="edieresis" unicode="&#xeb;" horiz-adv-x="588" 
d="M153 627v136h107v-136h-107zM339 627v136h107v-136h-107zM543 167q-1 -31 -12 -59.5t-36 -57.5t-75.5 -46.5t-120.5 -17.5q-136 0 -194.5 71t-58.5 212t58.5 213t194.5 72q134 0 190.5 -74t56.5 -248h-381q5 -79 36 -114t97 -35q67 0 97 26t32 58h116zM298 460
q-61 0 -92 -32t-39 -101h256q-10 72 -40 102.5t-85 30.5z" />
    <glyph glyph-name="igrave" unicode="&#xec;" horiz-adv-x="256" 
d="M181 628h-103l-98 153h119zM70 0v540h116v-540h-116z" />
    <glyph glyph-name="iacute" unicode="&#xed;" horiz-adv-x="256" 
d="M80 628l81 153h111l-98 -153h-94zM70 0v540h116v-540h-116z" />
    <glyph glyph-name="icircumflex" unicode="&#xee;" horiz-adv-x="256" 
d="M302 627h-109l-67 78l-66 -78h-107l116 150h114zM70 0v540h116v-540h-116z" />
    <glyph glyph-name="idieresis" unicode="&#xef;" horiz-adv-x="256" 
d="M-19 627v136h107v-136h-107zM167 627v136h107v-136h-107zM70 0v540h116v-540h-116z" />
    <glyph glyph-name="eth" unicode="&#xf0;" horiz-adv-x="599" 
d="M418 653q132 -186 136 -384q0 -142 -57 -212.5t-197 -70.5t-197 70.5t-57 212.5q0 137 57.5 207t196.5 70q36 0 67 -14q-17 35 -43 74l-84 -42l-50 69l83 41q-20 24 -40 45.5t-30 30.5l-10 10h136q15 -14 37 -40l80 40l52 -67zM435 263q0 54 -11 107q-15 36 -46 62.5
t-78 26.5q-75 0 -105.5 -45t-30.5 -145q0 -99 30.5 -143t105.5 -44q74 0 104 42.5t31 138.5z" />
    <glyph glyph-name="ntilde" unicode="&#xf1;" horiz-adv-x="610" 
d="M482 759q0 -132 -102 -132q-40 0 -73 23.5t-51 23.5q-21 0 -30 -14.5t-9 -29.5h-77q0 133 103 133q39 0 72 -24t52 -24q21 0 30 14.5t9 29.5h76zM72 0v397l-10 143h100l13 -75q57 83 195 83q96 0 137.5 -55t41.5 -186v-307h-116v311q0 67 -23.5 98t-84.5 31
q-86 0 -137 -75v-365h-116z" />
    <glyph glyph-name="ograve" unicode="&#xf2;" horiz-adv-x="599" 
d="M353 623h-103l-98 153h119zM554 269q0 -141 -58 -212t-196 -71q-139 0 -196.5 70.5t-57.5 212.5t57.5 213.5t196.5 71.5q138 1 196 -71t58 -214zM164 269q0 -99 30.5 -143t105.5 -44t105 44t30 143t-30 144t-105 45t-105.5 -45t-30.5 -144z" />
    <glyph glyph-name="oacute" unicode="&#xf3;" horiz-adv-x="599" 
d="M247 623l81 153h120l-98 -153h-103zM554 269q0 -141 -58 -212t-196 -71q-139 0 -196.5 70.5t-57.5 212.5t57.5 213.5t196.5 71.5q138 1 196 -71t58 -214zM164 269q0 -99 30.5 -143t105.5 -44t105 44t30 143t-30 144t-105 45t-105.5 -45t-30.5 -144z" />
    <glyph glyph-name="ocircumflex" unicode="&#xf4;" horiz-adv-x="599" 
d="M474 622h-109l-67 78l-66 -78h-107l116 150h114zM554 269q0 -141 -58 -212t-196 -71q-139 0 -196.5 70.5t-57.5 212.5t57.5 213.5t196.5 71.5q138 1 196 -71t58 -214zM164 269q0 -99 30.5 -143t105.5 -44t105 44t30 143t-30 144t-105 45t-105.5 -45t-30.5 -144z" />
    <glyph glyph-name="otilde" unicode="&#xf5;" horiz-adv-x="599" 
d="M471 754q0 -132 -102 -132q-40 0 -73 23.5t-51 23.5q-21 0 -30 -14.5t-9 -29.5h-77q0 133 103 133q39 0 72 -24t52 -24q21 0 30 14.5t9 29.5h76zM554 269q0 -141 -58 -212t-196 -71q-139 0 -196.5 70.5t-57.5 212.5t57.5 213.5t196.5 71.5q138 1 196 -71t58 -214z
M164 269q0 -99 30.5 -143t105.5 -44t105 44t30 143t-30 144t-105 45t-105.5 -45t-30.5 -144z" />
    <glyph glyph-name="odieresis" unicode="&#xf6;" horiz-adv-x="599" 
d="M153 622v136h107v-136h-107zM339 622v136h107v-136h-107zM554 269q0 -141 -58 -212t-196 -71q-139 0 -196.5 70.5t-57.5 212.5t57.5 213.5t196.5 71.5q138 1 196 -71t58 -214zM164 269q0 -99 30.5 -143t105.5 -44t105 44t30 143t-30 144t-105 45t-105.5 -45t-30.5 -144z
" />
    <glyph glyph-name="divide" unicode="&#xf7;" horiz-adv-x="494" 
d="M193 418v124h107v-124h-107zM36 267v103h422v-103h-422zM193 95v124h107v-124h-107z" />
    <glyph glyph-name="oslash" unicode="&#xf8;" horiz-adv-x="599" 
d="M27 -11l63 85q-44 66 -44 195q0 142 57.5 213.5t196.5 71.5q75 0 128 -22l14 18h126l-61 -83q47 -68 47 -198q0 -141 -58 -212t-196 -71q-79 0 -131 23l-15 -20h-127zM164 269q0 -51 7 -85l194 262q-27 12 -65 12q-75 0 -105.5 -45t-30.5 -144zM435 269q0 50 -8 90
l-195 -265q27 -12 68 -12q75 0 105 44t30 143z" />
    <glyph glyph-name="ugrave" unicode="&#xf9;" horiz-adv-x="605" 
d="M354 628h-103l-98 153h119zM447 0l-15 84q-18 -33 -65 -62.5t-131 -29.5q-95 0 -137 55t-42 182l1 311h115v-313q0 -65 24 -96t85 -31q89 0 138 85v355h116v-391l11 -149h-100z" />
    <glyph glyph-name="uacute" unicode="&#xfa;" horiz-adv-x="605" 
d="M248 628l81 153h120l-98 -153h-103zM447 0l-15 84q-18 -33 -65 -62.5t-131 -29.5q-95 0 -137 55t-42 182l1 311h115v-313q0 -65 24 -96t85 -31q89 0 138 85v355h116v-391l11 -149h-100z" />
    <glyph glyph-name="ucircumflex" unicode="&#xfb;" horiz-adv-x="605" 
d="M475 627h-109l-67 78l-66 -78h-107l116 150h114zM447 0l-15 84q-18 -33 -65 -62.5t-131 -29.5q-95 0 -137 55t-42 182l1 311h115v-313q0 -65 24 -96t85 -31q89 0 138 85v355h116v-391l11 -149h-100z" />
    <glyph glyph-name="udieresis" unicode="&#xfc;" horiz-adv-x="605" 
d="M154 627v136h107v-136h-107zM340 627v136h107v-136h-107zM447 0l-15 84q-18 -33 -65 -62.5t-131 -29.5q-95 0 -137 55t-42 182l1 311h115v-313q0 -65 24 -96t85 -31q89 0 138 85v355h116v-391l11 -149h-100z" />
    <glyph glyph-name="yacute" unicode="&#xfd;" horiz-adv-x="551" 
d="M225 628l81 153h120l-98 -153h-103zM180 -228l71 228h-50l-193 540h129l142 -453l142 453h122l-258 -768h-105z" />
    <glyph glyph-name="thorn" unicode="&#xfe;" horiz-adv-x="611" 
d="M72 -240v994h115v-266q60 63 167 63q212 0 212 -283q0 -279 -217 -279q-108 0 -162 56v-285h-115zM323 449q-84 0 -136 -67v-223q45 -65 137 -65q66 0 96 43.5t30 130.5q0 181 -127 181z" />
    <glyph glyph-name="ydieresis" unicode="&#xff;" horiz-adv-x="551" 
d="M131 627v136h107v-136h-107zM317 627v136h107v-136h-107zM180 -228l71 228h-50l-193 540h129l142 -453l142 453h122l-258 -768h-105z" />
    <glyph glyph-name="Amacron" unicode="&#x100;" horiz-adv-x="679" 
d="M203 875h275v-90h-275v90zM8 0l268 714h127l267 -714h-129l-51 150h-305l-50 -150h-127zM222 258h232l-116 344z" />
    <glyph glyph-name="amacron" unicode="&#x101;" horiz-adv-x="598" 
d="M162 735h275v-82h-275v82zM434 1l-12 57q-72 -72 -182 -72q-196 0 -196 168q0 101 59 143t168 42q82 0 142 -8q-2 72 -24.5 99t-92.5 27q-122 0 -122 -89h-106q0 183 222 183q39 0 70.5 -4.5t55 -11.5t41.5 -20.5t30 -25.5t20 -34t12.5 -38.5t6.5 -45.5t2.5 -48.5
t0.5 -54.5v-125l11 -142h-106zM266 83q58 0 99 27t48 57v73q-65 5 -110 5q-71 0 -105.5 -19t-34.5 -65q0 -78 103 -78z" />
    <glyph glyph-name="Abreve" unicode="&#x102;" horiz-adv-x="679" 
d="M506 887q0 -48 -40.5 -86t-125.5 -38t-125.5 38t-40.5 86h97q0 -19 20.5 -34.5t48.5 -15.5q29 0 49.5 15.5t20.5 34.5h96zM8 0l268 714h127l267 -714h-129l-51 150h-305l-50 -150h-127zM222 258h232l-116 344z" />
    <glyph glyph-name="abreve" unicode="&#x103;" horiz-adv-x="598" 
d="M467 760q0 -50 -41.5 -92.5t-126.5 -42.5t-126.5 42.5t-41.5 92.5h98q0 -21 20 -41t50 -20q29 0 49.5 20t20.5 41h98zM434 1l-12 57q-72 -72 -182 -72q-196 0 -196 168q0 101 59 143t168 42q82 0 142 -8q-2 72 -24.5 99t-92.5 27q-122 0 -122 -89h-106q0 183 222 183
q39 0 70.5 -4.5t55 -11.5t41.5 -20.5t30 -25.5t20 -34t12.5 -38.5t6.5 -45.5t2.5 -48.5t0.5 -54.5v-125l11 -142h-106zM266 83q58 0 99 27t48 57v73q-65 5 -110 5q-71 0 -105.5 -19t-34.5 -65q0 -78 103 -78z" />
    <glyph glyph-name="Aogonek" unicode="&#x104;" horiz-adv-x="679" 
d="M446 -120q0 34 23.5 65.5t46.5 46.5l23 14l-49 144h-305l-50 -150h-127l268 714h127l267 -714h-32q-3 -2 -8.5 -5t-18.5 -13t-23 -20t-18.5 -25t-8.5 -30q0 -36 36 -36q10 0 21.5 3.5t17.5 6.5l7 3v-69q-25 -21 -96 -21q-53 0 -77 24t-24 62zM222 258h232l-116 344z" />
    <glyph glyph-name="aogonek" unicode="&#x105;" horiz-adv-x="598" 
d="M340 -119q0 21 9.5 42t23 35.5t27.5 26t24 17.5l9 5l-11 51q-72 -72 -182 -72q-196 0 -196 168q0 101 59 143t168 42q82 0 142 -8q-2 72 -24.5 99t-92.5 27q-122 0 -122 -89h-106q0 183 222 183q39 0 70.5 -4.5t55 -11.5t41.5 -20.5t30 -25.5t20 -34t12.5 -38.5
t6.5 -45.5t2.5 -48.5t0.5 -54.5v-125l11 -142h-8q-3 -2 -8.5 -5t-18.5 -13t-23 -20t-18.5 -25t-8.5 -30q0 -36 36 -36q10 0 21.5 3t17.5 7l7 3v-69q-25 -21 -96 -21q-53 0 -77 24t-24 62zM266 83q58 0 99 27t48 57v73q-65 5 -110 5q-71 0 -105.5 -19t-34.5 -65
q0 -78 103 -78z" />
    <glyph glyph-name="Cacute" unicode="&#x106;" horiz-adv-x="666" 
d="M279 774l82 128h138l-99 -128h-121zM624 255q-2 -143 -70.5 -208.5t-207.5 -65.5q-158 0 -229 90.5t-71 285.5q0 194 71 285t229 91q139 0 208.5 -66.5t70.5 -210.5h-117q-4 89 -43.5 129t-118.5 40q-95 0 -137 -62.5t-42 -205.5t42 -205t137 -62q77 0 117 39t45 126h116
z" />
    <glyph glyph-name="cacute" unicode="&#x107;" horiz-adv-x="575" 
d="M238 628l81 153h120l-98 -153h-103zM536 188q-8 -201 -240 -201q-136 0 -193 70.5t-57 211.5t57.5 213t192.5 72q124 0 180.5 -55t59.5 -162h-114q-3 122 -126 122q-71 0 -101.5 -46t-30.5 -144t30 -142.5t102 -44.5q122 0 125 106h115z" />
    <glyph glyph-name="Ccircumflex" unicode="&#x108;" horiz-adv-x="666" 
d="M520 774h-113l-65 67l-64 -67h-110l110 130h128zM624 255q-2 -143 -70.5 -208.5t-207.5 -65.5q-158 0 -229 90.5t-71 285.5q0 194 71 285t229 91q139 0 208.5 -66.5t70.5 -210.5h-117q-4 89 -43.5 129t-118.5 40q-95 0 -137 -62.5t-42 -205.5t42 -205t137 -62
q77 0 117 39t45 126h116z" />
    <glyph glyph-name="ccircumflex" unicode="&#x109;" horiz-adv-x="575" 
d="M465 627h-109l-67 78l-66 -78h-107l116 150h114zM536 188q-8 -201 -240 -201q-136 0 -193 70.5t-57 211.5t57.5 213t192.5 72q124 0 180.5 -55t59.5 -162h-114q-3 122 -126 122q-71 0 -101.5 -46t-30.5 -144t30 -142.5t102 -44.5q122 0 125 106h115z" />
    <glyph glyph-name="Cdotaccent" unicode="&#x10a;" horiz-adv-x="666" 
d="M284 774v135h117v-135h-117zM624 255q-2 -143 -70.5 -208.5t-207.5 -65.5q-158 0 -229 90.5t-71 285.5q0 194 71 285t229 91q139 0 208.5 -66.5t70.5 -210.5h-117q-4 89 -43.5 129t-118.5 40q-95 0 -137 -62.5t-42 -205.5t42 -205t137 -62q77 0 117 39t45 126h116z" />
    <glyph glyph-name="cdotaccent" unicode="&#x10b;" horiz-adv-x="575" 
d="M233 633v130h117v-130h-117zM536 188q-8 -201 -240 -201q-136 0 -193 70.5t-57 211.5t57.5 213t192.5 72q124 0 180.5 -55t59.5 -162h-114q-3 122 -126 122q-71 0 -101.5 -46t-30.5 -144t30 -142.5t102 -44.5q122 0 125 106h115z" />
    <glyph glyph-name="Ccaron" unicode="&#x10c;" horiz-adv-x="666" 
d="M520 904l-114 -130h-128l-110 130h109l65 -68l65 68h113zM624 255q-2 -143 -70.5 -208.5t-207.5 -65.5q-158 0 -229 90.5t-71 285.5q0 194 71 285t229 91q139 0 208.5 -66.5t70.5 -210.5h-117q-4 89 -43.5 129t-118.5 40q-95 0 -137 -62.5t-42 -205.5t42 -205t137 -62
q77 0 117 39t45 126h116z" />
    <glyph glyph-name="ccaron" unicode="&#x10d;" horiz-adv-x="575" 
d="M465 777l-119 -150h-114l-115 150h105l66 -75l67 75h110zM536 188q-8 -201 -240 -201q-136 0 -193 70.5t-57 211.5t57.5 213t192.5 72q124 0 180.5 -55t59.5 -162h-114q-3 122 -126 122q-71 0 -101.5 -46t-30.5 -144t30 -142.5t102 -44.5q122 0 125 106h115z" />
    <glyph glyph-name="Dcaron" unicode="&#x10e;" horiz-adv-x="691" 
d="M502 899l-114 -130h-128l-110 130h109l65 -68l65 68h113zM74 716h226q107 0 175.5 -20.5t105.5 -68t50.5 -110t13.5 -160.5t-13.5 -160.5t-50.5 -110t-105.5 -68t-175.5 -20.5h-226v718zM194 609v-505h128q113 -1 157 55t44 198t-43.5 197t-157.5 55h-128z" />
    <glyph glyph-name="dcaron" unicode="&#x10f;" horiz-adv-x="606" 
d="M563 593l54 167h93l-79 -167h-68zM449 0l-11 60q-51 -71 -176 -71q-216 0 -216 279q0 283 212 283q99 0 165 -61v264h115v-606l10 -148h-99zM288 94q86 0 135 61v229q-51 65 -135 65q-126 0 -126 -181q0 -87 30 -130.5t96 -43.5z" />
    <glyph glyph-name="Dcroat" unicode="&#x110;" horiz-adv-x="691" 
d="M74 316h-68v81h68v319h226q107 0 175.5 -20.5t105.5 -68t50.5 -110t13.5 -160.5t-13.5 -160.5t-50.5 -110t-105.5 -68t-175.5 -20.5h-226v318zM194 316v-212h128q113 -1 157 55t44 198t-43.5 197t-157.5 55h-128v-212h116v-81h-116z" />
    <glyph glyph-name="dcroat" unicode="&#x111;" horiz-adv-x="606" 
d="M538 582v-434l10 -148h-99l-11 60q-51 -71 -176 -71q-216 0 -216 279q0 283 212 283q99 0 165 -61v92h-125v81h125v91h115v-91h64v-81h-64zM288 94q86 0 135 61v229q-51 65 -135 65q-126 0 -126 -181q0 -87 30 -130.5t96 -43.5z" />
    <glyph glyph-name="Emacron" unicode="&#x112;" horiz-adv-x="576" 
d="M172 875h275v-90h-275v90zM74 0v714h471v-107h-352v-187h302v-104h-302v-209h357v-107h-476z" />
    <glyph glyph-name="emacron" unicode="&#x113;" horiz-adv-x="588" 
d="M163 735h275v-82h-275v82zM543 167q-1 -31 -12 -59.5t-36 -57.5t-75.5 -46.5t-120.5 -17.5q-136 0 -194.5 71t-58.5 212t58.5 213t194.5 72q134 0 190.5 -74t56.5 -248h-381q5 -79 36 -114t97 -35q67 0 97 26t32 58h116zM298 460q-61 0 -92 -32t-39 -101h256
q-10 72 -40 102.5t-85 30.5z" />
    <glyph glyph-name="Ebreve" unicode="&#x114;" horiz-adv-x="576" 
d="M475 887q0 -48 -40.5 -86t-125.5 -38t-125.5 38t-40.5 86h97q0 -19 20 -34.5t49 -15.5t49.5 15.5t20.5 34.5h96zM74 0v714h471v-107h-352v-187h302v-104h-302v-209h357v-107h-476z" />
    <glyph glyph-name="ebreve" unicode="&#x115;" horiz-adv-x="588" 
d="M468 760q0 -50 -41.5 -92.5t-126.5 -42.5t-126.5 42.5t-41.5 92.5h98q0 -21 20 -41t50 -20q29 0 49.5 20t20.5 41h98zM543 167q-1 -31 -12 -59.5t-36 -57.5t-75.5 -46.5t-120.5 -17.5q-136 0 -194.5 71t-58.5 212t58.5 213t194.5 72q134 0 190.5 -74t56.5 -248h-381
q5 -79 36 -114t97 -35q67 0 97 26t32 58h116zM298 460q-61 0 -92 -32t-39 -101h256q-10 72 -40 102.5t-85 30.5z" />
    <glyph glyph-name="Edotaccent" unicode="&#x116;" horiz-adv-x="576" 
d="M251 769v135h117v-135h-117zM74 0v714h471v-107h-352v-187h302v-104h-302v-209h357v-107h-476z" />
    <glyph glyph-name="edotaccent" unicode="&#x117;" horiz-adv-x="588" 
d="M242 633v130h117v-130h-117zM543 167q-1 -31 -12 -59.5t-36 -57.5t-75.5 -46.5t-120.5 -17.5q-136 0 -194.5 71t-58.5 212t58.5 213t194.5 72q134 0 190.5 -74t56.5 -248h-381q5 -79 36 -114t97 -35q67 0 97 26t32 58h116zM298 460q-61 0 -92 -32t-39 -101h256
q-10 72 -40 102.5t-85 30.5z" />
    <glyph glyph-name="Eogonek" unicode="&#x118;" horiz-adv-x="576" 
d="M358 -120q0 68 83 120h-367v714h471v-107h-352v-187h302v-104h-302v-209h357v-107q-3 -2 -8.5 -5t-18.5 -13t-23 -20t-18.5 -25t-8.5 -30q0 -36 36 -36q10 0 21.5 3.5t17.5 6.5l7 3v-69q-25 -21 -96 -21q-53 0 -77 24t-24 62z" />
    <glyph glyph-name="eogonek" unicode="&#x119;" horiz-adv-x="588" 
d="M272 -95q0 43 36 81h-9q-136 0 -194.5 71t-58.5 212t58.5 213t194.5 72q134 0 190.5 -74t56.5 -248h-381q5 -79 36 -114t97 -35q67 0 97 26t32 58h116q-4 -103 -91 -149q-65 -43 -65 -86q0 -36 36 -36q10 0 21.5 3t17.5 7l7 3v-69q-25 -21 -96 -21q-53 0 -77 24t-24 62z
M298 460q-61 0 -92 -32t-39 -101h256q-10 72 -40 102.5t-85 30.5z" />
    <glyph glyph-name="Ecaron" unicode="&#x11a;" horiz-adv-x="576" 
d="M487 899l-114 -130h-128l-110 130h109l65 -68l65 68h113zM74 0v714h471v-107h-352v-187h302v-104h-302v-209h357v-107h-476z" />
    <glyph glyph-name="ecaron" unicode="&#x11b;" horiz-adv-x="588" 
d="M474 777l-119 -150h-114l-115 150h105l66 -75l67 75h110zM543 167q-1 -31 -12 -59.5t-36 -57.5t-75.5 -46.5t-120.5 -17.5q-136 0 -194.5 71t-58.5 212t58.5 213t194.5 72q134 0 190.5 -74t56.5 -248h-381q5 -79 36 -114t97 -35q67 0 97 26t32 58h116zM298 460
q-61 0 -92 -32t-39 -101h256q-10 72 -40 102.5t-85 30.5z" />
    <glyph glyph-name="Gcircumflex" unicode="&#x11c;" horiz-adv-x="671" 
d="M521 774h-113l-65 67l-64 -67h-110l110 130h128zM616 88q0 -4 -9 -15t-31 -26.5t-51.5 -30t-77 -25t-102.5 -10.5q-159 0 -229 90t-70 285t70 286t229 91q138 0 205 -66t67 -189h-112q-2 68 -43.5 107.5t-116.5 39.5q-94 0 -136 -63t-42 -206q0 -145 43 -208t139 -63
q47 0 85.5 12t56 26.5t17.5 25.5v107h-135v101h243v-269z" />
    <glyph glyph-name="gcircumflex" unicode="&#x11d;" horiz-adv-x="606" 
d="M475 627h-109l-67 78l-66 -78h-107l116 150h114zM538 -2q0 -30 -0.5 -46.5t-5 -45.5t-13.5 -46t-27 -38.5t-43.5 -33t-65 -20t-90.5 -8.5q-50 0 -89.5 10.5t-62.5 27.5t-40 37.5t-23.5 41.5t-10 38t-3.5 27l1 11l122 1v-13t5.5 -24t15.5 -31t32.5 -23t53.5 -11
q36 0 61 8.5t38 20t20 33.5t8.5 40t1.5 48v42q-53 -55 -161 -55q-216 0 -216 279q0 283 212 283q49 0 90 -16t58.5 -30.5t29.5 -29.5l13 65h99l-10 -144v-398zM288 94q86 0 135 61v229q-51 65 -135 65q-126 0 -126 -181q0 -87 30 -130.5t96 -43.5z" />
    <glyph glyph-name="Gbreve" unicode="&#x11e;" horiz-adv-x="671" 
d="M509 892q0 -48 -40.5 -86t-125.5 -38t-125.5 38t-40.5 86h97q0 -19 20 -34.5t49 -15.5t49.5 15.5t20.5 34.5h96zM616 88q0 -4 -9 -15t-31 -26.5t-51.5 -30t-77 -25t-102.5 -10.5q-159 0 -229 90t-70 285t70 286t229 91q138 0 205 -66t67 -189h-112q-2 68 -43.5 107.5
t-116.5 39.5q-94 0 -136 -63t-42 -206q0 -145 43 -208t139 -63q47 0 85.5 12t56 26.5t17.5 25.5v107h-135v101h243v-269z" />
    <glyph glyph-name="gbreve" unicode="&#x11f;" horiz-adv-x="606" 
d="M469 760q0 -50 -41.5 -92.5t-126.5 -42.5t-126.5 42.5t-41.5 92.5h98q0 -21 20 -41t50 -20q29 0 49.5 20t20.5 41h98zM538 -2q0 -30 -0.5 -46.5t-5 -45.5t-13.5 -46t-27 -38.5t-43.5 -33t-65 -20t-90.5 -8.5q-50 0 -89.5 10.5t-62.5 27.5t-40 37.5t-23.5 41.5t-10 38
t-3.5 27l1 11l122 1v-13t5.5 -24t15.5 -31t32.5 -23t53.5 -11q36 0 61 8.5t38 20t20 33.5t8.5 40t1.5 48v42q-53 -55 -161 -55q-216 0 -216 279q0 283 212 283q49 0 90 -16t58.5 -30.5t29.5 -29.5l13 65h99l-10 -144v-398zM288 94q86 0 135 61v229q-51 65 -135 65
q-126 0 -126 -181q0 -87 30 -130.5t96 -43.5z" />
    <glyph glyph-name="Gdotaccent" unicode="&#x120;" horiz-adv-x="671" 
d="M285 774v135h117v-135h-117zM616 88q0 -4 -9 -15t-31 -26.5t-51.5 -30t-77 -25t-102.5 -10.5q-159 0 -229 90t-70 285t70 286t229 91q138 0 205 -66t67 -189h-112q-2 68 -43.5 107.5t-116.5 39.5q-94 0 -136 -63t-42 -206q0 -145 43 -208t139 -63q47 0 85.5 12t56 26.5
t17.5 25.5v107h-135v101h243v-269z" />
    <glyph glyph-name="gdotaccent" unicode="&#x121;" horiz-adv-x="606" 
d="M243 633v130h117v-130h-117zM538 -2q0 -30 -0.5 -46.5t-5 -45.5t-13.5 -46t-27 -38.5t-43.5 -33t-65 -20t-90.5 -8.5q-50 0 -89.5 10.5t-62.5 27.5t-40 37.5t-23.5 41.5t-10 38t-3.5 27l1 11l122 1v-13t5.5 -24t15.5 -31t32.5 -23t53.5 -11q36 0 61 8.5t38 20t20 33.5
t8.5 40t1.5 48v42q-53 -55 -161 -55q-216 0 -216 279q0 283 212 283q49 0 90 -16t58.5 -30.5t29.5 -29.5l13 65h99l-10 -144v-398zM288 94q86 0 135 61v229q-51 65 -135 65q-126 0 -126 -181q0 -87 30 -130.5t96 -43.5z" />
    <glyph glyph-name="Gcommaaccent" unicode="&#x122;" horiz-adv-x="671" 
d="M616 88q0 -4 -9 -15t-31 -26.5t-51.5 -30t-77 -25t-102.5 -10.5q-159 0 -229 90t-70 285t70 286t229 91q138 0 205 -66t67 -189h-112q-2 68 -43.5 107.5t-116.5 39.5q-94 0 -136 -63t-42 -206q0 -145 43 -208t139 -63q47 0 85.5 12t56 26.5t17.5 25.5v107h-135v101h243
v-269zM272 -267q16 41 31 105q6 27 9.5 53t3.5 39l1 12h102q-6 -55 -24 -113q-10 -31 -21.5 -55t-17.5 -32l-7 -9h-77z" />
    <glyph glyph-name="gcommaaccent" unicode="&#x123;" horiz-adv-x="606" 
d="M391 812q-19 -45 -35 -118q-8 -32 -11.5 -59.5t-3.5 -39.5v-12h-102q3 51 24 120q11 35 23.5 62.5t19.5 36.5l8 10h77zM538 -2q0 -30 -0.5 -46.5t-5 -45.5t-13.5 -46t-27 -38.5t-43.5 -33t-65 -20t-90.5 -8.5q-50 0 -89.5 10.5t-62.5 27.5t-40 37.5t-23.5 41.5t-10 38
t-3.5 27l1 11l122 1v-13t5.5 -24t15.5 -31t32.5 -23t53.5 -11q36 0 61 8.5t38 20t20 33.5t8.5 40t1.5 48v42q-53 -55 -161 -55q-216 0 -216 279q0 283 212 283q49 0 90 -16t58.5 -30.5t29.5 -29.5l13 65h99l-10 -144v-398zM288 94q86 0 135 61v229q-51 65 -135 65
q-126 0 -126 -181q0 -87 30 -130.5t96 -43.5z" />
    <glyph glyph-name="Hcircumflex" unicode="&#x124;" horiz-adv-x="698" 
d="M526 769h-113l-65 67l-64 -67h-110l110 130h128zM74 0v714h119v-291h312v291h119v-714h-119v313h-312v-313h-119z" />
    <glyph glyph-name="hcircumflex" unicode="&#x125;" horiz-adv-x="611" 
d="M308 787h-113l-65 67l-64 -67h-110l110 130h128zM72 0v754h116v-275q60 69 183 69q96 0 137.5 -54.5t41.5 -182.5v-311h-116v315q0 65 -23.5 95t-84.5 30q-88 0 -138 -77v-363h-116z" />
    <glyph glyph-name="Hbar" unicode="&#x126;" horiz-adv-x="698" 
d="M624 521v-521h-119v313h-312v-313h-119v521h-61v90h61v103h119v-103h312v103h119v-103h59v-90h-59zM505 423v98h-312v-98h312z" />
    <glyph glyph-name="hbar" unicode="&#x127;" horiz-adv-x="611" 
d="M188 584v-105q60 69 183 69q96 0 137.5 -54.5t41.5 -182.5v-311h-116v315q0 65 -23.5 95t-84.5 30q-88 0 -138 -77v-363h-116v584h-71v81h71v89h116v-89h117v-81h-117z" />
    <glyph glyph-name="Itilde" unicode="&#x128;" horiz-adv-x="267" 
d="M305 898q0 -133 -103 -133q-40 0 -70.5 23t-51.5 23q-22 0 -31 -14t-9 -30h-77q0 60 22 96.5t82 36.5q40 0 70.5 -23t50.5 -23q22 0 31 14t9 30h77zM74 0v714h119v-714h-119z" />
    <glyph glyph-name="itilde" unicode="&#x129;" horiz-adv-x="256" 
d="M299 759q0 -132 -102 -132q-40 0 -73 23.5t-51 23.5q-21 0 -30 -14.5t-9 -29.5h-77q0 133 103 133q39 0 72 -24t52 -24q21 0 30 14.5t9 29.5h76zM70 0v540h116v-540h-116z" />
    <glyph glyph-name="Imacron" unicode="&#x12a;" horiz-adv-x="267" 
d="M-3 875h275v-90h-275v90zM74 0v714h119v-714h-119z" />
    <glyph glyph-name="imacron" unicode="&#x12b;" horiz-adv-x="256" 
d="M-9 735h275v-82h-275v82zM70 0v540h116v-540h-116z" />
    <glyph glyph-name="Ibreve" unicode="&#x12c;" horiz-adv-x="267" 
d="M300 887q0 -48 -40.5 -86t-125.5 -38t-125.5 38t-40.5 86h97q0 -19 20.5 -34.5t48.5 -15.5q29 0 49.5 15.5t20.5 34.5h96zM74 0v714h119v-714h-119z" />
    <glyph glyph-name="ibreve" unicode="&#x12d;" horiz-adv-x="256" 
d="M296 760q0 -50 -41.5 -92.5t-126.5 -42.5t-126.5 42.5t-41.5 92.5h98q0 -21 20 -41t50 -20q29 0 49.5 20t20.5 41h98zM70 0v540h116v-540h-116z" />
    <glyph glyph-name="Iogonek" unicode="&#x12e;" horiz-adv-x="267" 
d="M-18 -120q0 21 9.5 41.5t21.5 34.5t27 26t22.5 16.5t11.5 6.5v709h119v-714h-19q-3 -2 -8.5 -5t-18.5 -13t-23 -20t-18.5 -25t-8.5 -30q0 -36 36 -36q10 0 21.5 3.5t17.5 6.5l7 3v-69q-25 -21 -96 -21q-53 0 -77 24t-24 62z" />
    <glyph glyph-name="iogonek" unicode="&#x12f;" horiz-adv-x="256" 
d="M70 633v130h117v-130h-117zM-20 -119q0 32 21.5 62t39 43t29.5 19v535h116v-540h-16q-10 -5 -24.5 -15.5t-32.5 -32.5t-18 -44q0 -36 36 -36q10 0 21.5 3t17.5 7l7 3v-69q-25 -21 -96 -21q-53 0 -77 24t-24 62z" />
    <glyph glyph-name="Idotaccent" unicode="&#x130;" horiz-adv-x="267" 
d="M76 769v135h117v-135h-117zM74 0v714h119v-714h-119z" />
    <glyph glyph-name="dotlessi" unicode="&#x131;" horiz-adv-x="256" 
d="M70 0v540h116v-540h-116z" />
    <glyph glyph-name="IJ" unicode="&#x132;" horiz-adv-x="654" 
d="M74 0v714h119v-714h-119zM590 291q0 -59 -3 -97t-13 -73.5t-27.5 -56t-47 -36.5t-72 -22t-102.5 -6h-55v115h55q89 0 117.5 36t28.5 140l1 423h118v-423z" />
    <glyph glyph-name="ij" unicode="&#x133;" horiz-adv-x="528" 
d="M70 633v130h117v-130h-117zM342 633v130h117v-130h-117zM70 0v540h116v-540h-116zM458 61q0 -42 -1 -65t-5.5 -55t-13 -49t-25.5 -37t-41.5 -30t-61 -16.5t-84.5 -6.5v109q25 0 43.5 3.5t31 7.5t20.5 15.5t12.5 20t6.5 28.5t2.5 33t0.5 42v479h115v-479z" />
    <glyph glyph-name="Jcircumflex" unicode="&#x134;" horiz-adv-x="387" 
d="M440 769h-113l-65 67l-64 -67h-110l110 130h128zM323 291q0 -59 -3 -97t-13 -73.5t-27.5 -56t-47 -36.5t-72 -22t-102.5 -6h-55v115h55q89 0 117.5 36t28.5 140l1 423h118v-423z" />
    <glyph glyph-name="jcircumflex" unicode="&#x135;" horiz-adv-x="263" 
d="M309 627h-109l-67 78l-66 -78h-107l116 150h114zM193 61q0 -42 -1 -65t-5.5 -55t-13 -49t-25.5 -37t-41.5 -30t-61 -16.5t-84.5 -6.5v109q25 0 43.5 3.5t31 7.5t20.5 15.5t12.5 20t6.5 28.5t2.5 33t0.5 42v479h115v-479z" />
    <glyph glyph-name="Kcommaaccent" unicode="&#x136;" horiz-adv-x="654" 
d="M74 0v714h119v-386l301 386h148l-237 -293l240 -421h-134l-183 325l-135 -167v-158h-119zM245 -251q16 41 31 105q6 27 9.5 53t4.5 39v12h102q-6 -55 -24 -113q-10 -31 -21.5 -55t-18.5 -32l-6 -9h-77z" />
    <glyph glyph-name="kcommaaccent" unicode="&#x137;" horiz-adv-x="538" 
d="M72 0v754h112v-474l204 260h130l-171 -205l192 -335h-130l-135 247l-90 -108v-139h-112zM204 -251q16 41 31 105q6 27 9.5 53t3.5 39l1 12h102q-6 -55 -24 -113q-10 -31 -21.5 -55t-17.5 -32l-7 -9h-77z" />
    <glyph glyph-name="kgreenlandic" unicode="&#x138;" horiz-adv-x="538" 
d="M72 0v540h112v-260l204 260h130l-171 -205l192 -335h-130l-135 247l-90 -108v-139h-112z" />
    <glyph glyph-name="Lacute" unicode="&#x139;" horiz-adv-x="505" 
d="M78 769l82 128h138l-99 -128h-121zM74 0v714h119v-603h301v-111h-420z" />
    <glyph glyph-name="lacute" unicode="&#x13a;" horiz-adv-x="259" 
d="M66 811l82 128h138l-99 -128h-121zM72 0v754h115v-754h-115z" />
    <glyph glyph-name="Lcommaaccent" unicode="&#x13b;" horiz-adv-x="505" 
d="M74 0v714h119v-603h301v-111h-420zM188 -251q16 41 31 105q6 27 9.5 53t3.5 39l1 12h102q-6 -55 -24 -113q-10 -31 -21.5 -55t-17.5 -32l-7 -9h-77z" />
    <glyph glyph-name="lcommaaccent" unicode="&#x13c;" horiz-adv-x="259" 
d="M72 0v754h115v-754h-115zM35 -251q16 41 31 105q6 27 9.5 53t4.5 39v12h102q-6 -55 -24 -113q-10 -31 -21.5 -55t-18.5 -32l-6 -9h-77z" />
    <glyph glyph-name="Lcaron" unicode="&#x13d;" horiz-adv-x="505" 
d="M273 596l57 169h99l-75 -169h-81zM74 0v714h119v-603h301v-111h-420z" />
    <glyph glyph-name="lcaron" unicode="&#x13e;" horiz-adv-x="259" 
d="M219 593l54 167h93l-79 -167h-68zM72 0v754h115v-754h-115z" />
    <glyph glyph-name="Ldot" unicode="&#x13f;" horiz-adv-x="503" 
d="M74 0v714h121v-601h295v-113h-416zM299 303v136h116v-136h-116z" />
    <glyph glyph-name="ldot" unicode="&#x140;" horiz-adv-x="313" 
d="M76 0v760h116v-760h-116zM230 307v136h117v-136h-117z" />
    <glyph glyph-name="Lslash" unicode="&#x141;" horiz-adv-x="505" 
d="M193 362v-251h301v-111h-420v297l-73 -40l-37 74l110 60v323h119v-258l78 43l37 -74z" />
    <glyph glyph-name="lslash" unicode="&#x142;" horiz-adv-x="259" 
d="M72 0v301l-73 -40l-37 74l110 60v359h115v-296l82 45l37 -74l-119 -65v-364h-115z" />
    <glyph glyph-name="Nacute" unicode="&#x143;" horiz-adv-x="729" 
d="M304 769l82 128h138l-99 -128h-121zM180 562l5 -562h-111l3 714h128l344 -554l-7 554h113v-714h-128z" />
    <glyph glyph-name="nacute" unicode="&#x144;" horiz-adv-x="610" 
d="M258 628l81 153h120l-98 -153h-103zM72 0v397l-10 143h100l13 -75q57 83 195 83q96 0 137.5 -55t41.5 -186v-307h-116v311q0 67 -23.5 98t-84.5 31q-86 0 -137 -75v-365h-116z" />
    <glyph glyph-name="Ncommaaccent" unicode="&#x145;" horiz-adv-x="729" 
d="M180 562l5 -562h-111l3 714h128l344 -554l-7 554h113v-714h-128zM288 -251q16 41 31 105q6 27 9.5 53t3.5 39l1 12h102q-6 -55 -24 -113q-10 -31 -21.5 -55t-17.5 -32l-7 -9h-77z" />
    <glyph glyph-name="ncommaaccent" unicode="&#x146;" horiz-adv-x="610" 
d="M72 0v397l-10 143h100l13 -75q57 83 195 83q96 0 137.5 -55t41.5 -186v-307h-116v311q0 67 -23.5 98t-84.5 31q-86 0 -137 -75v-365h-116zM223 -251q16 41 31 105q6 27 9.5 53t4.5 39v12h102q-6 -55 -24 -113q-10 -31 -21.5 -55t-18.5 -32l-6 -9h-77z" />
    <glyph glyph-name="Ncaron" unicode="&#x147;" horiz-adv-x="729" 
d="M545 899l-114 -130h-128l-110 130h109l65 -68l65 68h113zM180 562l5 -562h-111l3 714h128l344 -554l-7 554h113v-714h-128z" />
    <glyph glyph-name="ncaron" unicode="&#x148;" horiz-adv-x="610" 
d="M485 777l-119 -150h-114l-115 150h105l66 -75l67 75h110zM72 0v397l-10 143h100l13 -75q57 83 195 83q96 0 137.5 -55t41.5 -186v-307h-116v311q0 67 -23.5 98t-84.5 31q-86 0 -137 -75v-365h-116z" />
    <glyph glyph-name="Eng" unicode="&#x14a;" horiz-adv-x="730" 
d="M656 714v-714q0 -54 -9 -92t-32 -70t-68 -48t-113 -16h-51v90h51q65 0 92.5 31.5t27.5 104.5l-374 558l5 -558h-111l3 714h124l351 -531l-6 531h110z" />
    <glyph glyph-name="eng" unicode="&#x14b;" horiz-adv-x="610" 
d="M71 0v397l-9 143h98l14 -77q20 32 67 58.5t129 26.5q96 0 137.5 -55t41.5 -186v-237q0 -32 -0.5 -50.5t-2.5 -45.5t-6.5 -42t-12.5 -35t-19.5 -30.5t-29 -23t-40.5 -18.5t-53.5 -10t-68.5 -4v109q76 0 96.5 27.5t20.5 99.5v264q0 67 -23.5 98t-84.5 31q-88 0 -138 -77
v-363h-116z" />
    <glyph glyph-name="Omacron" unicode="&#x14c;" horiz-adv-x="699" 
d="M213 880h275v-90h-275v90zM653 357q0 -195 -71.5 -285.5t-232.5 -90.5q-160 0 -231.5 90.5t-71.5 285.5q0 194 71.5 285t231.5 91q161 0 232.5 -91t71.5 -285zM167 357q0 -143 42 -205t140 -62t140.5 62t42.5 205t-42.5 205.5t-140.5 62.5q-97 0 -139.5 -62.5
t-42.5 -205.5z" />
    <glyph glyph-name="omacron" unicode="&#x14d;" horiz-adv-x="599" 
d="M163 730h275v-82h-275v82zM554 269q0 -141 -58 -212t-196 -71q-139 0 -196.5 70.5t-57.5 212.5t57.5 213.5t196.5 71.5q138 1 196 -71t58 -214zM164 269q0 -99 30.5 -143t105.5 -44t105 44t30 143t-30 144t-105 45t-105.5 -45t-30.5 -144z" />
    <glyph glyph-name="Obreve" unicode="&#x14e;" horiz-adv-x="699" 
d="M516 892q0 -48 -40.5 -86t-125.5 -38t-125.5 38t-40.5 86h97q0 -19 20.5 -34.5t48.5 -15.5q29 0 49.5 15.5t20.5 34.5h96zM653 357q0 -195 -71.5 -285.5t-232.5 -90.5q-160 0 -231.5 90.5t-71.5 285.5q0 194 71.5 285t231.5 91q161 0 232.5 -91t71.5 -285zM167 357
q0 -143 42 -205t140 -62t140.5 62t42.5 205t-42.5 205.5t-140.5 62.5q-97 0 -139.5 -62.5t-42.5 -205.5z" />
    <glyph glyph-name="obreve" unicode="&#x14f;" horiz-adv-x="599" 
d="M468 755q0 -50 -41.5 -92.5t-126.5 -42.5t-126.5 42.5t-41.5 92.5h98q0 -21 20 -41t50 -20q29 0 49.5 20t20.5 41h98zM554 269q0 -141 -58 -212t-196 -71q-139 0 -196.5 70.5t-57.5 212.5t57.5 213.5t196.5 71.5q138 1 196 -71t58 -214zM164 269q0 -99 30.5 -143
t105.5 -44t105 44t30 143t-30 144t-105 45t-105.5 -45t-30.5 -144z" />
    <glyph glyph-name="Ohungarumlaut" unicode="&#x150;" horiz-adv-x="699" 
d="M196 775l77 128h120l-93 -128h-104zM367 775l95 128h120l-111 -128h-104zM653 357q0 -195 -71.5 -285.5t-232.5 -90.5q-160 0 -231.5 90.5t-71.5 285.5q0 194 71.5 285t231.5 91q161 0 232.5 -91t71.5 -285zM167 357q0 -143 42 -205t140 -62t140.5 62t42.5 205
t-42.5 205.5t-140.5 62.5q-97 0 -139.5 -62.5t-42.5 -205.5z" />
    <glyph glyph-name="ohungarumlaut" unicode="&#x151;" horiz-adv-x="599" 
d="M145 623l77 153h119l-93 -153h-103zM316 623l94 153h120l-111 -153h-103zM554 269q0 -141 -58 -212t-196 -71q-139 0 -196.5 70.5t-57.5 212.5t57.5 213.5t196.5 71.5q138 1 196 -71t58 -214zM164 269q0 -99 30.5 -143t105.5 -44t105 44t30 143t-30 144t-105 45
t-105.5 -45t-30.5 -144z" />
    <glyph glyph-name="OE" unicode="&#x152;" horiz-adv-x="961" 
d="M348 0q-162 0 -232 85t-70 272q0 186 70.5 271.5t231.5 85.5h581v-107h-352v-187h302v-104h-302v-209h358v-107h-587zM167 357q0 -136 42.5 -197t139.5 -61h110v517h-110q-97 0 -139.5 -62t-42.5 -197z" />
    <glyph glyph-name="oe" unicode="&#x153;" horiz-adv-x="978" 
d="M933 167q-1 -31 -12 -59.5t-36 -57.5t-75.5 -46.5t-120.5 -17.5q-145 0 -194 88q-48 -88 -195 -88q-139 0 -196.5 70.5t-57.5 212.5t57.5 213.5t196.5 71.5q147 0 195 -90q50 90 194 90q134 0 190.5 -74t56.5 -248h-381q5 -79 36 -114t97 -35q67 0 97.5 26t31.5 58h116z
M688 460q-61 0 -92 -32t-39 -101h256q-10 72 -40 102.5t-85 30.5zM164 269q0 -100 30 -143.5t106 -43.5q75 0 105 43.5t30 143.5t-30 144.5t-105 44.5t-105.5 -44.5t-30.5 -144.5z" />
    <glyph glyph-name="Racute" unicode="&#x154;" horiz-adv-x="677" 
d="M262 769l82 128h138l-99 -128h-121zM74 0v716h266q159 0 225 -48.5t66 -184.5q0 -94 -31 -143.5t-100 -69.5l138 -270h-126l-122 254q-17 -1 -54 -1h-143v-253h-119zM193 611v-253h134q98 0 140 23t42 103q0 42 -11.5 68.5t-37.5 39t-55 16t-78 3.5h-134z" />
    <glyph glyph-name="racute" unicode="&#x155;" horiz-adv-x="389" 
d="M153 628l81 153h120l-98 -153h-103zM72 0v384l-10 156h101l14 -90q19 39 65.5 71t129.5 32v-108q-48 0 -85 -15.5t-57 -40.5t-29 -43.5t-13 -35.5v-310h-116z" />
    <glyph glyph-name="Rcommaaccent" unicode="&#x156;" horiz-adv-x="677" 
d="M74 0v716h266q159 0 225 -48.5t66 -184.5q0 -94 -31 -143.5t-100 -69.5l138 -270h-126l-122 254q-17 -1 -54 -1h-143v-253h-119zM193 611v-253h134q98 0 140 23t42 103q0 42 -11.5 68.5t-37.5 39t-55 16t-78 3.5h-134zM246 -251q16 41 31 105q6 27 9.5 53t3.5 39l1 12
h102q-6 -55 -24 -113q-10 -31 -21.5 -55t-17.5 -32l-7 -9h-77z" />
    <glyph glyph-name="rcommaaccent" unicode="&#x157;" horiz-adv-x="389" 
d="M72 0v384l-10 156h101l14 -90q19 39 65.5 71t129.5 32v-108q-48 0 -85 -15.5t-57 -40.5t-29 -43.5t-13 -35.5v-310h-116zM33 -251q16 41 31 105q6 27 9.5 53t4.5 39v12h102q-6 -55 -24 -113q-10 -31 -21.5 -55t-18.5 -32l-6 -9h-77z" />
    <glyph glyph-name="Rcaron" unicode="&#x158;" horiz-adv-x="677" 
d="M503 899l-114 -130h-128l-110 130h109l65 -68l65 68h113zM74 0v716h266q159 0 225 -48.5t66 -184.5q0 -94 -31 -143.5t-100 -69.5l138 -270h-126l-122 254q-17 -1 -54 -1h-143v-253h-119zM193 611v-253h134q98 0 140 23t42 103q0 42 -11.5 68.5t-37.5 39t-55 16t-78 3.5
h-134z" />
    <glyph glyph-name="rcaron" unicode="&#x159;" horiz-adv-x="389" 
d="M380 777l-119 -150h-114l-115 150h105l66 -75l67 75h110zM72 0v384l-10 156h101l14 -90q19 39 65.5 71t129.5 32v-108q-48 0 -85 -15.5t-57 -40.5t-29 -43.5t-13 -35.5v-310h-116z" />
    <glyph glyph-name="Sacute" unicode="&#x15a;" horiz-adv-x="640" 
d="M255 774l82 128h138l-99 -128h-121zM599 191q0 -104 -70.5 -157.5t-208.5 -52.5q-277 3 -277 246h116q0 -141 167 -142q154 -2 154 102q0 35 -24 58.5t-62 36.5t-84 24t-92 26t-83.5 36.5t-61 61.5t-23.5 96q1 98 67 153t199 54q145 -1 206.5 -59t61.5 -171h-117
q0 56 -31 90t-119 35q-149 1 -149 -99q0 -34 24 -57.5t62 -36.5t84 -24t91.5 -26t83.5 -36.5t62 -61.5t24 -96z" />
    <glyph glyph-name="sacute" unicode="&#x15b;" horiz-adv-x="545" 
d="M220 628l81 153h120l-98 -153h-103zM511 149q0 -164 -239 -163q-116 1 -177 52.5t-61 144.5h115q0 -48 32 -73t90 -26q65 -1 93.5 17t29.5 54q1 33 -35 50t-87 24.5t-103 20t-88 48.5t-37 97q-1 77 56.5 118.5t172.5 40.5q225 -1 225 -184h-114q0 88 -108 89
q-116 3 -116 -69q0 -26 26 -41.5t65 -20.5t84.5 -15.5t84.5 -24.5t65 -49.5t26 -89.5z" />
    <glyph glyph-name="Scircumflex" unicode="&#x15c;" horiz-adv-x="640" 
d="M496 774h-113l-65 67l-64 -67h-110l110 130h128zM599 191q0 -104 -70.5 -157.5t-208.5 -52.5q-277 3 -277 246h116q0 -141 167 -142q154 -2 154 102q0 35 -24 58.5t-62 36.5t-84 24t-92 26t-83.5 36.5t-61 61.5t-23.5 96q1 98 67 153t199 54q145 -1 206.5 -59t61.5 -171
h-117q0 56 -31 90t-119 35q-149 1 -149 -99q0 -34 24 -57.5t62 -36.5t84 -24t91.5 -26t83.5 -36.5t62 -61.5t24 -96z" />
    <glyph glyph-name="scircumflex" unicode="&#x15d;" horiz-adv-x="545" 
d="M447 627h-109l-67 78l-66 -78h-107l116 150h114zM511 149q0 -164 -239 -163q-116 1 -177 52.5t-61 144.5h115q0 -48 32 -73t90 -26q65 -1 93.5 17t29.5 54q1 33 -35 50t-87 24.5t-103 20t-88 48.5t-37 97q-1 77 56.5 118.5t172.5 40.5q225 -1 225 -184h-114q0 88 -108 89
q-116 3 -116 -69q0 -26 26 -41.5t65 -20.5t84.5 -15.5t84.5 -24.5t65 -49.5t26 -89.5z" />
    <glyph glyph-name="Scedilla" unicode="&#x15e;" horiz-adv-x="640" 
d="M438 -159q0 -51 -33.5 -74t-116.5 -23q-23 0 -43.5 2t-28.5 4l-9 2v68q0 -1 5 -2.5t17.5 -3t27.5 -1.5q37 0 53 8.5t16 30.5q0 43 -86 43h-4l41 89q-234 20 -234 243h116q0 -141 167 -142q154 -2 154 102q0 35 -24 58.5t-62 36.5t-84 24t-92 26t-83.5 36.5t-61 61.5
t-23.5 96q1 98 67 153t199 54q145 -1 206.5 -59t61.5 -171h-117q0 56 -31 90t-119 35q-149 1 -149 -99q0 -34 24 -57.5t62 -36.5t84 -24t91.5 -26t83.5 -36.5t62 -61.5t24 -96q0 -184 -216 -207l-28 -58q83 -11 83 -85z" />
    <glyph glyph-name="scedilla" unicode="&#x15f;" horiz-adv-x="545" 
d="M393 -144q0 -51 -33.5 -74t-116.5 -23q-23 0 -43.5 2t-29.5 4l-8 2v68q0 -1 5 -2.5t17.5 -3t27.5 -1.5q37 0 53 8.5t16 30.5q0 43 -86 43h-4l36 79q-94 10 -143.5 60.5t-49.5 133.5h115q0 -48 32 -73t90 -26q65 -1 93.5 17t29.5 54q1 33 -35 50t-87 24.5t-103 20
t-88 48.5t-37 97q-1 77 56.5 118.5t172.5 40.5q225 -1 225 -184h-114q0 88 -108 89q-116 3 -116 -69q0 -26 26 -41.5t65 -20.5t84.5 -15.5t84.5 -24.5t65 -49.5t26 -89.5q0 -143 -178 -160l-23 -48q83 -11 83 -85z" />
    <glyph glyph-name="Scaron" unicode="&#x160;" horiz-adv-x="640" 
d="M496 904l-114 -130h-128l-110 130h109l65 -68l65 68h113zM599 191q0 -104 -70.5 -157.5t-208.5 -52.5q-277 3 -277 246h116q0 -141 167 -142q154 -2 154 102q0 35 -24 58.5t-62 36.5t-84 24t-92 26t-83.5 36.5t-61 61.5t-23.5 96q1 98 67 153t199 54q145 -1 206.5 -59
t61.5 -171h-117q0 56 -31 90t-119 35q-149 1 -149 -99q0 -34 24 -57.5t62 -36.5t84 -24t91.5 -26t83.5 -36.5t62 -61.5t24 -96z" />
    <glyph glyph-name="scaron" unicode="&#x161;" horiz-adv-x="545" 
d="M447 777l-119 -150h-114l-115 150h105l66 -75l67 75h110zM511 149q0 -164 -239 -163q-116 1 -177 52.5t-61 144.5h115q0 -48 32 -73t90 -26q65 -1 93.5 17t29.5 54q1 33 -35 50t-87 24.5t-103 20t-88 48.5t-37 97q-1 77 56.5 118.5t172.5 40.5q225 -1 225 -184h-114
q0 88 -108 89q-116 3 -116 -69q0 -26 26 -41.5t65 -20.5t84.5 -15.5t84.5 -24.5t65 -49.5t26 -89.5z" />
    <glyph glyph-name="uni0162" unicode="&#x162;" horiz-adv-x="567" 
d="M381 -146q0 -51 -33.5 -74t-116.5 -23q-23 0 -43.5 2t-29.5 4l-8 2v68q0 -1 5 -2.5t17.5 -3t27.5 -1.5q37 0 53 8.5t16 30.5q0 43 -86 43h-4l43 93l2 604h-216v109h552v-109h-218l-2 -605h-13l-29 -61q83 -11 83 -85z" />
    <glyph glyph-name="uni0163" unicode="&#x163;" horiz-adv-x="350" 
d="M338 -133q0 -51 -33.5 -74t-116.5 -23q-23 0 -43.5 2t-28.5 4l-9 2v68q0 -1 5 -2.5t17.5 -3t27.5 -1.5q37 0 53 8.5t16 30.5q0 43 -86 43h-4l42 92q-57 22 -74 72t-17 140v218h-70v97h70v154l116 19v-173h128v-97h-128v-213q0 -70 18 -98.5t74 -28.5h39v-106h-57l-22 -45
q83 -11 83 -85z" />
    <glyph glyph-name="Tcaron" unicode="&#x164;" horiz-adv-x="567" 
d="M462 899l-114 -130h-128l-110 130h109l65 -68l65 68h113zM222 0l2 605h-216v109h552v-109h-218l-2 -605h-118z" />
    <glyph glyph-name="tcaron" unicode="&#x165;" horiz-adv-x="350" 
d="M247 597l54 167h93l-79 -167h-68zM334 -3h-48q-67 0 -108.5 15.5t-60.5 49.5t-24.5 69t-5.5 94v218h-70v97h70v154l116 19v-173h128v-97h-128v-213q0 -70 18 -98.5t74 -28.5h39v-106z" />
    <glyph glyph-name="Tbar" unicode="&#x166;" horiz-adv-x="567" 
d="M222 0l1 286h-93v81h93l1 238h-216v109h552v-109h-218l-1 -238h93v-81h-93l-1 -286h-118z" />
    <glyph glyph-name="tbar" unicode="&#x167;" horiz-adv-x="350" 
d="M203 243v-13q0 -70 18 -98.5t74 -28.5h39v-106h-48q-67 0 -108.5 15.5t-60.5 49.5t-24.5 69t-5.5 94v18h-66v81h66v119h-70v97h70v154l116 19v-173h128v-97h-128v-119h122v-81h-122z" />
    <glyph glyph-name="Utilde" unicode="&#x168;" horiz-adv-x="684" 
d="M513 898q0 -133 -103 -133q-40 0 -70.5 23t-51.5 23q-22 0 -31 -14t-9 -30h-77q0 60 22 96.5t82 36.5q40 0 70.5 -23t50.5 -23q22 0 31 14t9 30h77zM620 344q0 -76 -6 -128.5t-23.5 -100t-48 -75t-80.5 -43.5t-120 -16t-120 16t-80.5 43.5t-48 75t-23.5 100t-6 128.5v370
h118v-361q0 -143 33.5 -201.5t125.5 -58.5q94 0 127 58.5t33 201.5v361h119v-370z" />
    <glyph glyph-name="utilde" unicode="&#x169;" horiz-adv-x="605" 
d="M472 759q0 -132 -102 -132q-40 0 -73 23.5t-51 23.5q-21 0 -30 -14.5t-9 -29.5h-77q0 133 103 133q39 0 72 -24t52 -24q21 0 30 14.5t9 29.5h76zM447 0l-15 84q-18 -33 -65 -62.5t-131 -29.5q-95 0 -137 55t-42 182l1 311h115v-313q0 -65 24 -96t85 -31q89 0 138 85v355
h116v-391l11 -149h-100z" />
    <glyph glyph-name="Umacron" unicode="&#x16a;" horiz-adv-x="684" 
d="M205 875h275v-90h-275v90zM620 344q0 -76 -6 -128.5t-23.5 -100t-48 -75t-80.5 -43.5t-120 -16t-120 16t-80.5 43.5t-48 75t-23.5 100t-6 128.5v370h118v-361q0 -143 33.5 -201.5t125.5 -58.5q94 0 127 58.5t33 201.5v361h119v-370z" />
    <glyph glyph-name="umacron" unicode="&#x16b;" horiz-adv-x="605" 
d="M164 735h275v-82h-275v82zM447 0l-15 84q-18 -33 -65 -62.5t-131 -29.5q-95 0 -137 55t-42 182l1 311h115v-313q0 -65 24 -96t85 -31q89 0 138 85v355h116v-391l11 -149h-100z" />
    <glyph glyph-name="Ubreve" unicode="&#x16c;" horiz-adv-x="684" 
d="M508 887q0 -48 -40.5 -86t-125.5 -38t-125.5 38t-40.5 86h97q0 -19 20.5 -34.5t48.5 -15.5q29 0 49.5 15.5t20.5 34.5h96zM620 344q0 -76 -6 -128.5t-23.5 -100t-48 -75t-80.5 -43.5t-120 -16t-120 16t-80.5 43.5t-48 75t-23.5 100t-6 128.5v370h118v-361
q0 -143 33.5 -201.5t125.5 -58.5q94 0 127 58.5t33 201.5v361h119v-370z" />
    <glyph glyph-name="ubreve" unicode="&#x16d;" horiz-adv-x="605" 
d="M469 760q0 -50 -41.5 -92.5t-126.5 -42.5t-126.5 42.5t-41.5 92.5h98q0 -21 20 -41t50 -20q29 0 49.5 20t20.5 41h98zM447 0l-15 84q-18 -33 -65 -62.5t-131 -29.5q-95 0 -137 55t-42 182l1 311h115v-313q0 -65 24 -96t85 -31q89 0 138 85v355h116v-391l11 -149h-100z
" />
    <glyph glyph-name="Uring" unicode="&#x16e;" horiz-adv-x="684" 
d="M459 862q0 -51 -31 -79.5t-84 -28.5q-54 0 -85 28.5t-31 79.5t31 79.5t85 28.5q53 0 84 -28.5t31 -79.5zM307 862q0 -17 10 -27.5t27 -10.5q16 0 26 10.5t10 27.5t-10 27.5t-26 10.5q-17 0 -27 -10.5t-10 -27.5zM620 344q0 -76 -6 -128.5t-23.5 -100t-48 -75t-80.5 -43.5
t-120 -16t-120 16t-80.5 43.5t-48 75t-23.5 100t-6 128.5v370h118v-361q0 -143 33.5 -201.5t125.5 -58.5q94 0 127 58.5t33 201.5v361h119v-370z" />
    <glyph glyph-name="uring" unicode="&#x16f;" horiz-adv-x="605" 
d="M416 716q0 -50 -30.5 -78t-82.5 -28q-53 0 -83.5 28t-30.5 78t30.5 78t83.5 28q52 0 82.5 -28t30.5 -78zM266 716q0 -17 10 -27.5t27 -10.5q16 0 26 10.5t10 27.5t-9.5 27t-26.5 10t-27 -10t-10 -27zM447 0l-15 84q-18 -33 -65 -62.5t-131 -29.5q-95 0 -137 55t-42 182
l1 311h115v-313q0 -65 24 -96t85 -31q89 0 138 85v355h116v-391l11 -149h-100z" />
    <glyph glyph-name="Uhungarumlaut" unicode="&#x170;" horiz-adv-x="684" 
d="M188 770l77 128h120l-93 -128h-104zM359 770l95 128h120l-111 -128h-104zM620 344q0 -76 -6 -128.5t-23.5 -100t-48 -75t-80.5 -43.5t-120 -16t-120 16t-80.5 43.5t-48 75t-23.5 100t-6 128.5v370h118v-361q0 -143 33.5 -201.5t125.5 -58.5q94 0 127 58.5t33 201.5v361
h119v-370z" />
    <glyph glyph-name="uhungarumlaut" unicode="&#x171;" horiz-adv-x="605" 
d="M146 628l77 153h119l-93 -153h-103zM317 628l94 153h120l-111 -153h-103zM447 0l-15 84q-18 -33 -65 -62.5t-131 -29.5q-95 0 -137 55t-42 182l1 311h115v-313q0 -65 24 -96t85 -31q89 0 138 85v355h116v-391l11 -149h-100z" />
    <glyph glyph-name="Uogonek" unicode="&#x172;" horiz-adv-x="684" 
d="M332 -94q0 39 31 75h-21q-70 0 -120 16t-80.5 43.5t-48 75t-23.5 100t-6 128.5v370h118v-361q0 -143 33.5 -201.5t125.5 -58.5q94 0 127 58.5t33 201.5v361h119v-370q0 -136 -24 -214.5t-91 -115.5q-58 -38 -58 -81q0 -36 36 -36q10 0 21.5 3.5t17.5 6.5l7 3v-69
q-25 -21 -96 -21q-53 0 -77 24t-24 62z" />
    <glyph glyph-name="uogonek" unicode="&#x173;" horiz-adv-x="605" 
d="M359 -117q0 30 19.5 58.5t35.5 41.5t32 22l-14 79q-18 -33 -65 -62.5t-131 -29.5q-95 0 -137 55t-42 182l1 311h115v-313q0 -65 24 -96t85 -31q89 0 138 85v355h116v-391l11 -148q-13 -7 -27.5 -18t-30 -32t-15.5 -41q0 -36 36 -36q10 0 21.5 3t18.5 7l6 3v-69
q-25 -21 -96 -21q-53 0 -77 24t-24 62z" />
    <glyph glyph-name="Wcircumflex" unicode="&#x174;" horiz-adv-x="1008" 
d="M685 769h-113l-65 67l-64 -67h-110l110 130h128zM505 590l-143 -590h-143l-204 714h135l144 -608l143 608h135l147 -607l147 607h128l-207 -714h-143z" />
    <glyph glyph-name="wcircumflex" unicode="&#x175;" horiz-adv-x="842" 
d="M598 627h-109l-67 78l-66 -78h-107l116 150h114zM419 427l-114 -427h-130l-169 540h124l110 -424l113 424h135l119 -425l106 425h123l-164 -540h-132z" />
    <glyph glyph-name="Ycircumflex" unicode="&#x176;" horiz-adv-x="625" 
d="M489 769h-113l-65 67l-64 -67h-110l110 130h128zM255 0v219l-247 495h135l171 -391l163 391h140l-245 -495v-219h-117z" />
    <glyph glyph-name="ycircumflex" unicode="&#x177;" horiz-adv-x="551" 
d="M452 627h-109l-67 78l-66 -78h-107l116 150h114zM180 -228l71 228h-50l-193 540h129l142 -453l142 453h122l-258 -768h-105z" />
    <glyph glyph-name="Ydieresis" unicode="&#x178;" horiz-adv-x="625" 
d="M155 769v135h117v-135h-117zM349 769v135h117v-135h-117zM255 0v219l-247 495h135l171 -391l163 391h140l-245 -495v-219h-117z" />
    <glyph glyph-name="Zacute" unicode="&#x179;" horiz-adv-x="563" 
d="M223 769l82 128h138l-99 -128h-121zM19 3v100l372 508h-355v100h501v-100l-376 -508h380v-100h-522z" />
    <glyph glyph-name="zacute" unicode="&#x17a;" horiz-adv-x="466" 
d="M184 628l81 153h120l-98 -153h-103zM20 3v101l287 332h-277v102h412v-101l-287 -333l287 1v-102h-422z" />
    <glyph glyph-name="Zdotaccent" unicode="&#x17b;" horiz-adv-x="563" 
d="M228 769v135h117v-135h-117zM19 3v100l372 508h-355v100h501v-100l-376 -508h380v-100h-522z" />
    <glyph glyph-name="zdotaccent" unicode="&#x17c;" horiz-adv-x="466" 
d="M179 633v130h117v-130h-117zM20 3v101l287 332h-277v102h412v-101l-287 -333l287 1v-102h-422z" />
    <glyph glyph-name="Zcaron" unicode="&#x17d;" horiz-adv-x="563" 
d="M464 899l-114 -130h-128l-110 130h109l65 -68l65 68h113zM19 3v100l372 508h-355v100h501v-100l-376 -508h380v-100h-522z" />
    <glyph glyph-name="zcaron" unicode="&#x17e;" horiz-adv-x="466" 
d="M411 777l-119 -150h-114l-115 150h105l66 -75l67 75h110zM20 3v101l287 332h-277v102h412v-101l-287 -333l287 1v-102h-422z" />
    <glyph glyph-name="uni018F" unicode="&#x18f;" horiz-adv-x="697" 
d="M651 357q0 -195 -71 -285.5t-232 -90.5q-162 0 -232 94t-70 300h484q-2 131 -44.5 191.5t-137.5 60.5q-145 0 -173 -142h-122q16 127 88 187.5t207 60.5q161 0 232 -90.5t71 -285.5zM348 92q81 0 123 43t54 136h-353q13 -95 54.5 -137t121.5 -42z" />
    <glyph glyph-name="uni019D" unicode="&#x19d;" horiz-adv-x="728" 
d="M179 563l2 -563q0 -56 -8 -94t-30.5 -70t-66 -47t-110.5 -15h-51v91h51q63 0 85.5 29.5t22.5 105.5l3 714h127l344 -554l-7 554h113v-714h-128z" />
    <glyph glyph-name="Gcaron" unicode="&#x1e6;" horiz-adv-x="671" 
d="M521 904l-114 -130h-128l-110 130h109l65 -68l65 68h113zM616 88q0 -4 -9 -15t-31 -26.5t-51.5 -30t-77 -25t-102.5 -10.5q-159 0 -229 90t-70 285t70 286t229 91q138 0 205 -66t67 -189h-112q-2 68 -43.5 107.5t-116.5 39.5q-94 0 -136 -63t-42 -206q0 -145 43 -208
t139 -63q47 0 85.5 12t56 26.5t17.5 25.5v107h-135v101h243v-269z" />
    <glyph glyph-name="gcaron" unicode="&#x1e7;" horiz-adv-x="606" 
d="M475 777l-119 -150h-114l-115 150h105l66 -75l67 75h110zM538 -2q0 -30 -0.5 -46.5t-5 -45.5t-13.5 -46t-27 -38.5t-43.5 -33t-65 -20t-90.5 -8.5q-50 0 -89.5 10.5t-62.5 27.5t-40 37.5t-23.5 41.5t-10 38t-3.5 27l1 11l122 1v-13t5.5 -24t15.5 -31t32.5 -23t53.5 -11
q36 0 61 8.5t38 20t20 33.5t8.5 40t1.5 48v42q-53 -55 -161 -55q-216 0 -216 279q0 283 212 283q49 0 90 -16t58.5 -30.5t29.5 -29.5l13 65h99l-10 -144v-398zM288 94q86 0 135 61v229q-51 65 -135 65q-126 0 -126 -181q0 -87 30 -130.5t96 -43.5z" />
    <glyph glyph-name="uni01EA" unicode="&#x1ea;" horiz-adv-x="699" 
d="M345 -90q0 37 28 72q-8 -1 -24 -1q-160 0 -231.5 90.5t-71.5 285.5q0 194 71.5 285t231.5 91q161 0 232.5 -91t71.5 -285q0 -135 -33.5 -218.5t-105.5 -122.5q-54 -38 -54 -79q0 -36 36 -36q10 0 21.5 3.5t18.5 6.5l6 3v-69q-25 -21 -96 -21q-53 0 -77 24t-24 62z
M167 357q0 -143 42 -205t140 -62t140.5 62t42.5 205t-42.5 205.5t-140.5 62.5q-97 0 -139.5 -62.5t-42.5 -205.5z" />
    <glyph glyph-name="uni01EB" unicode="&#x1eb;" horiz-adv-x="599" 
d="M260 -100q0 47 41 86h-1q-139 0 -196.5 70.5t-57.5 212.5t57.5 213.5t196.5 71.5q138 1 196 -71t58 -214q0 -199 -107 -252q-12 -6 -26 -16.5t-30 -31.5t-16 -42q0 -36 36 -36q10 0 21.5 3.5t17.5 6.5l7 3v-69q-25 -21 -96 -21q-53 0 -77 24t-24 62zM164 269
q0 -99 30.5 -143t105.5 -44t105 44t30 143t-30 144t-105 45t-105.5 -45t-30.5 -144z" />
    <glyph glyph-name="Aringacute" unicode="&#x1fa;" horiz-adv-x="679" 
d="M277 1007l82 128h138l-99 -128h-121zM457 862q0 -51 -31 -79.5t-84 -28.5q-54 0 -85 28.5t-31 79.5t31 79.5t85 28.5q53 0 84 -28.5t31 -79.5zM305 862q0 -17 10 -27.5t27 -10.5q16 0 26 10.5t10 27.5t-10 27.5t-26 10.5q-17 0 -27 -10.5t-10 -27.5zM8 0l268 714h127
l267 -714h-129l-51 150h-305l-50 -150h-127zM222 258h232l-116 344z" />
    <glyph glyph-name="aringacute" unicode="&#x1fb;" horiz-adv-x="598" 
d="M252 852l81 153h120l-98 -153h-103zM414 716q0 -50 -30.5 -78t-82.5 -28q-53 0 -83.5 28t-30.5 78t30.5 78t83.5 28q52 0 82.5 -28t30.5 -78zM264 716q0 -17 10 -27.5t27 -10.5q16 0 26 10.5t10 27.5t-9.5 27t-26.5 10t-27 -10t-10 -27zM434 1l-12 57q-72 -72 -182 -72
q-196 0 -196 168q0 101 59 143t168 42q82 0 142 -8q-2 72 -24.5 99t-92.5 27q-122 0 -122 -89h-106q0 183 222 183q39 0 70.5 -4.5t55 -11.5t41.5 -20.5t30 -25.5t20 -34t12.5 -38.5t6.5 -45.5t2.5 -48.5t0.5 -54.5v-125l11 -142h-106zM266 83q58 0 99 27t48 57v73
q-65 5 -110 5q-71 0 -105.5 -19t-34.5 -65q0 -78 103 -78z" />
    <glyph glyph-name="AEacute" unicode="&#x1fc;" horiz-adv-x="949" 
d="M397 769l82 128h138l-99 -128h-121zM8 0l367 714h542v-107h-352v-187h302v-104h-302v-209h358v-107h-476v165h-226l-82 -165h-131zM447 264v354l-177 -354h177z" />
    <glyph glyph-name="aeacute" unicode="&#x1fd;" horiz-adv-x="939" 
d="M439 628l81 153h120l-98 -153h-103zM895 167q-1 -24 -7.5 -47t-23.5 -48t-43 -43.5t-70 -30.5t-101 -12q-150 0 -209 90q-72 -89 -201 -89q-196 0 -196 167q0 100 58.5 140t168.5 40h129q1 17 7 45q-7 41 -33.5 59.5t-77.5 18.5q-122 0 -122 -89h-106q0 183 222 183
q123 0 174 -60q61 63 186 63q135 0 191 -74t56 -248h-380q5 -79 35.5 -114t96.5 -35q68 0 98 26t31 58h117zM649 460q-61 0 -91.5 -32t-38.5 -101h256q-10 72 -40.5 102.5t-85.5 30.5zM406 165q-8 35 -9 76h-94q-73 0 -106.5 -17t-33.5 -63q0 -78 103 -78q56 0 94 26t46 56z
" />
    <glyph glyph-name="Oslashacute" unicode="&#x1fe;" horiz-adv-x="699" 
d="M281 770l82 128h138l-99 -128h-121zM32 -10l70 103q-56 88 -56 264q0 194 71.5 285t231.5 91q98 0 165 -35l19 28h128l-68 -100q60 -91 60 -269q0 -195 -71.5 -285.5t-232.5 -90.5q-102 0 -170 37l-19 -28h-128zM167 357q0 -89 15 -146l266 391q-37 23 -99 23
q-97 0 -139.5 -62.5t-42.5 -205.5zM532 357q0 93 -18 153l-269 -395q40 -25 104 -25q98 0 140.5 62t42.5 205z" />
    <glyph glyph-name="oslashacute" unicode="&#x1ff;" horiz-adv-x="599" 
d="M247 623l81 153h120l-98 -153h-103zM27 -11l63 85q-44 66 -44 195q0 142 57.5 213.5t196.5 71.5q75 0 128 -22l14 18h126l-61 -83q47 -68 47 -198q0 -141 -58 -212t-196 -71q-79 0 -131 23l-15 -20h-127zM164 269q0 -51 7 -85l194 262q-27 12 -65 12q-75 0 -105.5 -45
t-30.5 -144zM435 269q0 50 -8 90l-195 -265q27 -12 68 -12q75 0 105 44t30 143z" />
    <glyph glyph-name="Scommaaccent" unicode="&#x218;" horiz-adv-x="640" 
d="M599 191q0 -104 -70.5 -157.5t-208.5 -52.5q-277 3 -277 246h116q0 -141 167 -142q154 -2 154 102q0 35 -24 58.5t-62 36.5t-84 24t-92 26t-83.5 36.5t-61 61.5t-23.5 96q1 98 67 153t199 54q145 -1 206.5 -59t61.5 -171h-117q0 56 -31 90t-119 35q-149 1 -149 -99
q0 -34 24 -57.5t62 -36.5t84 -24t91.5 -26t83.5 -36.5t62 -61.5t24 -96zM250 -266q16 41 31 105q6 27 9.5 53t3.5 38l1 13h102q-6 -55 -24 -113q-10 -31 -21.5 -55t-17.5 -33l-7 -8h-77z" />
    <glyph glyph-name="scommaaccent" unicode="&#x219;" horiz-adv-x="545" 
d="M511 149q0 -164 -239 -163q-116 1 -177 52.5t-61 144.5h115q0 -48 32 -73t90 -26q65 -1 93.5 17t29.5 54q1 33 -35 50t-87 24.5t-103 20t-88 48.5t-37 97q-1 77 56.5 118.5t172.5 40.5q225 -1 225 -184h-114q0 88 -108 89q-116 3 -116 -69q0 -26 26 -41.5t65 -20.5
t84.5 -15.5t84.5 -24.5t65 -49.5t26 -89.5zM205 -251q16 41 31 105q6 27 9.5 53t4.5 39v12h102q-6 -55 -24 -113q-10 -31 -21.5 -55t-18.5 -32l-6 -9h-77z" />
    <glyph glyph-name="uni021A" unicode="&#x21a;" horiz-adv-x="574" 
d="M224 0l2 603h-213v111h548v-111h-215l-1 -603h-121zM184 -253q16 42 31 105q6 27 10 53t5 39v12h101q-6 -55 -24 -112q-10 -31 -21.5 -55.5t-17.5 -32.5l-7 -9h-77z" />
    <glyph glyph-name="uni021B" unicode="&#x21b;" horiz-adv-x="350" 
d="M334 -3h-48q-67 0 -108.5 15.5t-60.5 49.5t-24.5 69t-5.5 94v218h-70v97h70v154l116 19v-173h128v-97h-128v-213q0 -70 18 -98.5t74 -28.5h39v-106zM150 -240q16 41 31 105q6 27 9.5 53t3.5 38l1 13h102q-6 -55 -24 -113q-10 -31 -21.5 -55t-17.5 -33l-7 -8h-77z" />
    <glyph glyph-name="uni0232" unicode="&#x232;" horiz-adv-x="625" 
d="M174 875h275v-90h-275v90zM255 0v219l-247 495h135l171 -391l163 391h140l-245 -495v-219h-117z" />
    <glyph glyph-name="uni0233" unicode="&#x233;" horiz-adv-x="551" 
d="M141 735h275v-82h-275v82zM180 -228l71 228h-50l-193 540h129l142 -453l142 453h122l-258 -768h-105z" />
    <glyph glyph-name="uni0237" unicode="&#x237;" horiz-adv-x="263" 
d="M193 61q0 -42 -1 -65t-5.5 -55t-13 -49t-25.5 -37t-41.5 -30t-61 -16.5t-84.5 -6.5v109q25 0 43.5 3.5t31 7.5t20.5 15.5t12.5 20t6.5 28.5t2.5 33t0.5 42v479h115v-479z" />
    <glyph glyph-name="uni0259" unicode="&#x259;" horiz-adv-x="592" 
d="M547 271q0 -141 -58.5 -213t-194.5 -72q-135 0 -191.5 73t-56.5 244h381q-5 82 -35.5 118t-97.5 36t-97 -26t-32 -58h-116q1 31 12 59.5t36 57.5t75.5 46.5t121.5 17.5q136 0 194.5 -71.5t58.5 -211.5zM295 80q60 0 90.5 30.5t38.5 97.5l-255 -1q11 -69 41 -98t85 -29z
" />
    <glyph glyph-name="uni0272" unicode="&#x272;" horiz-adv-x="615" 
d="M193 70q0 -42 -1 -65t-5.5 -55t-13 -49t-25.5 -37t-41.5 -30t-61 -16.5t-84.5 -6.5v100q22 0 38.5 1.5t29 7.5t20.5 11t13.5 18l8.5 20.5t4.5 28.5t1.5 32.5v39.5v327l-10 143h100l13 -75q57 83 195 83q96 0 137.5 -55t41.5 -186v-307h-116v311q0 67 -23.5 98t-84.5 31
q-86 0 -137 -76v-294z" />
    <glyph glyph-name="circumflex" unicode="&#x2c6;" horiz-adv-x="463" 
d="M419 627h-109l-67 78l-66 -78h-107l116 150h114z" />
    <glyph glyph-name="caron" unicode="&#x2c7;" horiz-adv-x="464" 
d="M421 777l-119 -150h-114l-115 150h105l66 -75l67 75h110z" />
    <glyph glyph-name="breve" unicode="&#x2d8;" horiz-adv-x="457" 
d="M383 760q0 -50 -41.5 -92.5t-126.5 -42.5t-126.5 42.5t-41.5 92.5h98q0 -21 20 -41t50 -20q29 0 49.5 20t20.5 41h98z" />
    <glyph glyph-name="dotaccent" unicode="&#x2d9;" horiz-adv-x="341" 
d="M53 633v130h117v-130h-117z" />
    <glyph glyph-name="ring" unicode="&#x2da;" horiz-adv-x="426" 
d="M289 716q0 -50 -30.5 -78t-82.5 -28q-53 0 -83.5 28t-30.5 78t30.5 78t83.5 28q52 0 82.5 -28t30.5 -78zM139 716q0 -17 10 -27.5t27 -10.5q16 0 26 10.5t10 27.5t-9.5 27t-26.5 10t-27 -10t-10 -27z" />
    <glyph glyph-name="ogonek" unicode="&#x2db;" horiz-adv-x="412" 
d="M37 -116q0 34 23.5 65.5t46.5 46.5l23 14l99 -6q-3 -2 -8.5 -5t-18.5 -13t-23 -20t-18.5 -25t-8.5 -30q0 -36 36 -36q10 0 21.5 3.5t18.5 6.5l6 3v-69q-25 -21 -96 -21q-53 0 -77 24t-24 62z" />
    <glyph glyph-name="tilde" unicode="&#x2dc;" horiz-adv-x="469" 
d="M409 759q0 -132 -102 -132q-40 0 -73 23.5t-51 23.5q-21 0 -30 -14.5t-9 -29.5h-77q0 133 103 133q39 0 72 -24t52 -24q21 0 30 14.5t9 29.5h76z" />
    <glyph glyph-name="hungarumlaut" unicode="&#x2dd;" horiz-adv-x="439" 
d="M61 628l77 153h119l-93 -153h-103zM232 628l94 153h120l-111 -153h-103z" />
    <glyph glyph-name="gravecomb" unicode="&#x300;" 
d="M-47 628h-103l-98 153h119z" />
    <glyph glyph-name="acutecomb" unicode="&#x301;" 
d="M-257 628l81 153h120l-98 -153h-103z" />
    <glyph glyph-name="uni0302" unicode="&#x302;" 
d="M-73 627h-109l-67 78l-66 -78h-107l116 150h114z" />
    <glyph glyph-name="tildecomb" unicode="&#x303;" 
d="M-67 759q0 -132 -102 -132q-40 0 -73 23.5t-51 23.5q-21 0 -30 -14.5t-9 -29.5h-77q0 133 103 133q39 0 72 -24t52 -24q21 0 30 14.5t9 29.5h76z" />
    <glyph glyph-name="uni0304" unicode="&#x304;" 
d="M-335 735h275v-82h-275v82z" />
    <glyph glyph-name="uni0306" unicode="&#x306;" 
d="M-46 760q0 -50 -41.5 -92.5t-126.5 -42.5t-126.5 42.5t-41.5 92.5h98q0 -21 20 -41t50 -20q29 0 49.5 20t20.5 41h98z" />
    <glyph glyph-name="uni0307" unicode="&#x307;" 
d="M-170 633v130h117v-130h-117z" />
    <glyph glyph-name="uni0308" unicode="&#x308;" 
d="M-355 627v136h107v-136h-107zM-169 627v136h107v-136h-107z" />
    <glyph glyph-name="uni030A" unicode="&#x30a;" 
d="M-58 716q0 -50 -30.5 -78t-82.5 -28q-53 0 -83.5 28t-30.5 78t30.5 78t83.5 28q52 0 82.5 -28t30.5 -78zM-208 716q0 -17 10 -27.5t27 -10.5q16 0 26 10.5t10 27.5t-9.5 27t-26.5 10t-27 -10t-10 -27z" />
    <glyph glyph-name="uni030B" unicode="&#x30b;" 
d="M-437 628l77 153h119l-93 -153h-103zM-266 628l94 153h120l-111 -153h-103z" />
    <glyph glyph-name="uni030C" unicode="&#x30c;" 
d="M-73 777l-119 -150h-114l-115 150h105l66 -75l67 75h110z" />
    <glyph glyph-name="uni0312" unicode="&#x312;" 
d="M-48 812q-19 -45 -35 -118q-8 -32 -11.5 -59.5t-3.5 -39.5v-12h-102q3 51 24 120q11 35 23.5 62.5t20.5 36.5l7 10h77z" />
    <glyph glyph-name="dotbelowcomb" unicode="&#x323;" 
d="M-170 -187v124h116v-124h-116z" />
    <glyph glyph-name="uni0326" unicode="&#x326;" 
d="M-213 -251q16 41 31 105q6 27 9.5 53t4.5 39v12h102q-6 -55 -24 -113q-10 -31 -21.5 -55t-18.5 -32l-6 -9h-77z" />
    <glyph glyph-name="uni0327" unicode="&#x327;" 
d="M-53 -144q0 -51 -33.5 -74t-116.5 -23q-23 0 -43.5 2t-29.5 4l-8 2v68q0 -1 5 -2.5t17.5 -3t27.5 -1.5q37 0 53 8.5t16 30.5q0 43 -86 43h-4l43 93h106l-30 -62q83 -11 83 -85z" />
    <glyph glyph-name="uni0328" unicode="&#x328;" 
d="M-289 -116q0 34 23.5 65.5t46.5 46.5l23 14l99 -6q-3 -2 -8.5 -5t-18.5 -13t-23 -20t-18.5 -25t-8.5 -30q0 -36 36 -36q10 0 21.5 3.5t18.5 6.5l6 3v-69q-25 -21 -96 -21q-53 0 -77 24t-24 62z" />
    <glyph glyph-name="uni0335" unicode="&#x335;" 
d="M-350 301v81h304v-81h-304z" />
    <glyph glyph-name="uni0336" unicode="&#x336;" 
d="M-749 297v90h670v-90h-670z" />
    <glyph glyph-name="uni0337" unicode="&#x337;" 
d="M-352 199l-37 74l307 168l37 -74z" />
    <glyph glyph-name="uni0338" unicode="&#x338;" 
d="M-509 99l415 561h126l-414 -561h-127z" />
    <glyph glyph-name="pi" unicode="&#x3c0;" horiz-adv-x="654" 
d="M506 459v-260q0 -55 11.5 -82t49.5 -27h20v-90h-24q-51 0 -82 12.5t-45.5 42t-19 60.5t-4.5 84v260h-184v-459h-95v459h-83v95h540v-95h-84z" />
    <glyph glyph-name="Wgrave" unicode="&#x1e80;" horiz-adv-x="1008" 
d="M566 770h-121l-98 128h137zM505 590l-143 -590h-143l-204 714h135l144 -608l143 608h135l147 -607l147 607h128l-207 -714h-143z" />
    <glyph glyph-name="wgrave" unicode="&#x1e81;" horiz-adv-x="842" 
d="M477 628h-103l-98 153h119zM419 427l-114 -427h-130l-169 540h124l110 -424l113 424h135l119 -425l106 425h123l-164 -540h-132z" />
    <glyph glyph-name="Wacute" unicode="&#x1e82;" horiz-adv-x="1008" 
d="M444 769l82 128h138l-99 -128h-121zM505 590l-143 -590h-143l-204 714h135l144 -608l143 608h135l147 -607l147 607h128l-207 -714h-143z" />
    <glyph glyph-name="wacute" unicode="&#x1e83;" horiz-adv-x="842" 
d="M371 628l81 153h120l-98 -153h-103zM419 427l-114 -427h-130l-169 540h124l110 -424l113 424h135l119 -425l106 425h123l-164 -540h-132z" />
    <glyph glyph-name="Wdieresis" unicode="&#x1e84;" horiz-adv-x="1008" 
d="M351 769v135h117v-135h-117zM545 769v135h117v-135h-117zM505 590l-143 -590h-143l-204 714h135l144 -608l143 608h135l147 -607l147 607h128l-207 -714h-143z" />
    <glyph glyph-name="wdieresis" unicode="&#x1e85;" horiz-adv-x="842" 
d="M277 627v136h107v-136h-107zM463 627v136h107v-136h-107zM419 427l-114 -427h-130l-169 540h124l110 -424l113 424h135l119 -425l106 425h123l-164 -540h-132z" />
    <glyph glyph-name="uni1E9E" unicode="&#x1e9e;" horiz-adv-x="690" 
d="M660 224q0 -98 -62 -161t-199 -63h-143v99h140q140 0 140 142q0 66 -40 102t-112 36q-20 0 -41 -2.5t-31 -4.5l-11 -3v78l195 168h-182q-124 0 -124 -139v-476h-116v484q0 42 5 73.5t19.5 62.5t39.5 50.5t67.5 31.5t100.5 12h329v-99l-181 -163q107 -14 156.5 -70.5
t49.5 -157.5z" />
    <glyph glyph-name="uni1EA0" unicode="&#x1ea0;" horiz-adv-x="679" 
d="M8 0l268 714h127l267 -714h-129l-51 150h-305l-50 -150h-127zM222 258h232l-116 344zM280 -187v124h116v-124h-116z" />
    <glyph glyph-name="uni1EA1" unicode="&#x1ea1;" horiz-adv-x="598" 
d="M434 1l-12 57q-72 -72 -182 -72q-196 0 -196 168q0 101 59 143t168 42q82 0 142 -8q-2 72 -24.5 99t-92.5 27q-122 0 -122 -89h-106q0 183 222 183q39 0 70.5 -4.5t55 -11.5t41.5 -20.5t30 -25.5t20 -34t12.5 -38.5t6.5 -45.5t2.5 -48.5t0.5 -54.5v-125l11 -142h-106z
M266 83q58 0 99 27t48 57v73q-65 5 -110 5q-71 0 -105.5 -19t-34.5 -65q0 -78 103 -78zM237 -195v124h116v-124h-116z" />
    <glyph glyph-name="uni1EB8" unicode="&#x1eb8;" horiz-adv-x="576" 
d="M74 0v714h471v-107h-352v-187h302v-104h-302v-209h357v-107h-476zM255 -187v124h116v-124h-116z" />
    <glyph glyph-name="uni1EB9" unicode="&#x1eb9;" horiz-adv-x="588" 
d="M543 167q-1 -31 -12 -59.5t-36 -57.5t-75.5 -46.5t-120.5 -17.5q-136 0 -194.5 71t-58.5 212t58.5 213t194.5 72q134 0 190.5 -74t56.5 -248h-381q5 -79 36 -114t97 -35q67 0 97 26t32 58h116zM298 460q-61 0 -92 -32t-39 -101h256q-10 72 -40 102.5t-85 30.5zM243 -194
v124h116v-124h-116z" />
    <glyph glyph-name="uni1EBC" unicode="&#x1ebc;" horiz-adv-x="576" 
d="M480 898q0 -133 -103 -133q-40 0 -70.5 23t-51.5 23q-22 0 -31 -14t-9 -30h-77q0 60 22 96.5t82 36.5q40 0 70.5 -23t50.5 -23q22 0 31 14t9 30h77zM74 0v714h471v-107h-352v-187h302v-104h-302v-209h357v-107h-476z" />
    <glyph glyph-name="uni1EBD" unicode="&#x1ebd;" horiz-adv-x="588" 
d="M471 759q0 -132 -102 -132q-40 0 -73 23.5t-51 23.5q-21 0 -30 -14.5t-9 -29.5h-77q0 133 103 133q39 0 72 -24t52 -24q21 0 30 14.5t9 29.5h76zM543 167q-1 -31 -12 -59.5t-36 -57.5t-75.5 -46.5t-120.5 -17.5q-136 0 -194.5 71t-58.5 212t58.5 213t194.5 72
q134 0 190.5 -74t56.5 -248h-381q5 -79 36 -114t97 -35q67 0 97 26t32 58h116zM298 460q-61 0 -92 -32t-39 -101h256q-10 72 -40 102.5t-85 30.5z" />
    <glyph glyph-name="uni1ECA" unicode="&#x1eca;" horiz-adv-x="267" 
d="M74 0v714h119v-714h-119zM75 -191v124h116v-124h-116z" />
    <glyph glyph-name="uni1ECB" unicode="&#x1ecb;" horiz-adv-x="256" 
d="M70 633v130h117v-130h-117zM70 0v540h116v-540h-116zM70 -187v124h116v-124h-116z" />
    <glyph glyph-name="uni1ECC" unicode="&#x1ecc;" horiz-adv-x="699" 
d="M653 357q0 -195 -71.5 -285.5t-232.5 -90.5q-160 0 -231.5 90.5t-71.5 285.5q0 194 71.5 285t231.5 91q161 0 232.5 -91t71.5 -285zM167 357q0 -143 42 -205t140 -62t140.5 62t42.5 205t-42.5 205.5t-140.5 62.5q-97 0 -139.5 -62.5t-42.5 -205.5zM292 -196v124h116v-124
h-116z" />
    <glyph glyph-name="uni1ECD" unicode="&#x1ecd;" horiz-adv-x="599" 
d="M554 269q0 -141 -58 -212t-196 -71q-139 0 -196.5 70.5t-57.5 212.5t57.5 213.5t196.5 71.5q138 1 196 -71t58 -214zM164 269q0 -99 30.5 -143t105.5 -44t105 44t30 143t-30 144t-105 45t-105.5 -45t-30.5 -144zM242 -196v124h116v-124h-116z" />
    <glyph glyph-name="uni1EE4" unicode="&#x1ee4;" horiz-adv-x="684" 
d="M620 344q0 -76 -6 -128.5t-23.5 -100t-48 -75t-80.5 -43.5t-120 -16t-120 16t-80.5 43.5t-48 75t-23.5 100t-6 128.5v370h118v-361q0 -143 33.5 -201.5t125.5 -58.5q94 0 127 58.5t33 201.5v361h119v-370zM284 -196v124h116v-124h-116z" />
    <glyph glyph-name="uni1EE5" unicode="&#x1ee5;" horiz-adv-x="605" 
d="M447 0l-15 84q-18 -33 -65 -62.5t-131 -29.5q-95 0 -137 55t-42 182l1 311h115v-313q0 -65 24 -96t85 -31q89 0 138 85v355h116v-391l11 -149h-100zM243 -196v124h116v-124h-116z" />
    <glyph glyph-name="Ygrave" unicode="&#x1ef2;" horiz-adv-x="625" 
d="M370 770h-121l-98 128h137zM255 0v219l-247 495h135l171 -391l163 391h140l-245 -495v-219h-117z" />
    <glyph glyph-name="ygrave" unicode="&#x1ef3;" horiz-adv-x="551" 
d="M331 628h-103l-98 153h119zM180 -228l71 228h-50l-193 540h129l142 -453l142 453h122l-258 -768h-105z" />
    <glyph glyph-name="uni1EF8" unicode="&#x1ef8;" horiz-adv-x="625" 
d="M482 898q0 -133 -103 -133q-40 0 -70.5 23t-51.5 23q-22 0 -31 -14t-9 -30h-77q0 60 22 96.5t82 36.5q40 0 70.5 -23t50.5 -23q22 0 31 14t9 30h77zM255 0v219l-247 495h135l171 -391l163 391h140l-245 -495v-219h-117z" />
    <glyph glyph-name="uni1EF9" unicode="&#x1ef9;" horiz-adv-x="551" 
d="M449 759q0 -132 -102 -132q-40 0 -73 23.5t-51 23.5q-21 0 -30 -14.5t-9 -29.5h-77q0 133 103 133q39 0 72 -24t52 -24q21 0 30 14.5t9 29.5h76zM180 -228l71 228h-50l-193 540h129l142 -453l142 453h122l-258 -768h-105z" />
    <glyph glyph-name="uni2009" unicode="&#x2009;" horiz-adv-x="67" 
 />
    <glyph glyph-name="endash" unicode="&#x2013;" horiz-adv-x="598" 
d="M65 277v86h468v-86h-468z" />
    <glyph glyph-name="emdash" unicode="&#x2014;" horiz-adv-x="942" 
d="M81 277v86h781v-86h-781z" />
    <glyph glyph-name="uni2016" unicode="&#x2016;" horiz-adv-x="417" 
d="M72 -180v1000h82v-1000h-82zM263 -180v1000h82v-1000h-82z" />
    <glyph glyph-name="quoteleft" unicode="&#x2018;" horiz-adv-x="227" 
d="M50 508q1 43 23 125q11 40 25 71.5t22 43.5l9 12h81q-23 -54 -39 -135q-8 -38 -11.5 -67t-3.5 -40v-10h-106z" />
    <glyph glyph-name="quoteright" unicode="&#x2019;" horiz-adv-x="226" 
d="M30 508q24 54 40 136q7 37 10.5 66t3.5 40v10h106q-1 -43 -23 -125q-11 -40 -25 -71.5t-22 -43.5l-9 -12h-81z" />
    <glyph glyph-name="quotesinglbase" unicode="&#x201a;" horiz-adv-x="251" 
d="M40 -115q23 53 39 135q8 37 11.5 66t3.5 40v10h106q-1 -43 -24 -125q-11 -39 -24.5 -70.5t-21.5 -43.5l-9 -12h-81z" />
    <glyph glyph-name="quotedblleft" unicode="&#x201c;" horiz-adv-x="386" 
d="M50 508q1 43 23 125q11 40 25 71.5t22 43.5l9 12h81q-23 -54 -39 -135q-8 -38 -11.5 -67t-3.5 -40v-10h-106zM210 508q1 43 23 125q11 40 25 71.5t22 43.5l9 12h81q-23 -54 -40 -135q-7 -38 -10.5 -67t-3.5 -40v-10h-106z" />
    <glyph glyph-name="quotedblright" unicode="&#x201d;" horiz-adv-x="386" 
d="M30 508q23 54 39 136q8 37 11.5 66t3.5 40v10h106q-1 -43 -23 -125q-11 -40 -25 -71.5t-22 -43.5l-9 -12h-81zM190 508q23 54 39 136q8 37 11.5 66t3.5 40v10h106q-1 -43 -24 -125q-11 -40 -24.5 -71.5t-21.5 -43.5l-9 -12h-81z" />
    <glyph glyph-name="quotedblbase" unicode="&#x201e;" horiz-adv-x="397" 
d="M30 -128q23 54 39 136q8 37 11.5 66t3.5 40v10h106q-1 -43 -23 -125q-11 -40 -25 -71.5t-22 -43.5l-9 -12h-81zM187 -128q23 54 39 136q8 37 11.5 66t3.5 40v10h106q-1 -43 -23 -125q-11 -40 -25 -71.5t-23 -43.5l-8 -12h-81z" />
    <glyph glyph-name="dagger" unicode="&#x2020;" horiz-adv-x="547" 
d="M76 584h156v193h83v-193h157v-72h-157v-512h-83v512h-156v72z" />
    <glyph glyph-name="daggerdbl" unicode="&#x2021;" horiz-adv-x="578" 
d="M76 584h156v193h83v-193h157v-72h-157v-247h157v-71h-157v-194h-83v194h-156v71h156v247h-156v72z" />
    <glyph glyph-name="bullet" unicode="&#x2022;" horiz-adv-x="476" 
d="M165 216v165h147v-165h-147z" />
    <glyph glyph-name="ellipsis" unicode="&#x2026;" horiz-adv-x="680" 
d="M84 0v141h118v-141h-118zM281 0v141h118v-141h-118zM478 0v141h118v-141h-118z" />
    <glyph glyph-name="perthousand" unicode="&#x2030;" horiz-adv-x="1202" 
d="M376 538q0 -89 -39.5 -135t-132.5 -46q-92 0 -132.5 46t-40.5 135q0 90 40.5 137t132.5 47q93 0 132.5 -47t39.5 -137zM128 0l460 702h109l-460 -702h-109zM116 538q0 -54 21 -80t67 -26q47 0 67 25.5t20 80.5t-20 82.5t-67 27.5q-88 0 -88 -110zM791 160
q0 -89 -39.5 -135t-131.5 -46t-132.5 46t-40.5 135q0 90 40.5 137.5t132.5 47.5t131.5 -47.5t39.5 -137.5zM1166 160q0 -89 -39.5 -135t-132.5 -46q-92 0 -132.5 46t-40.5 135q0 90 40.5 137.5t132.5 47.5q93 0 132.5 -47.5t39.5 -137.5zM531 160q0 -54 21 -80t68 -26t67 26
t20 80q0 55 -20.5 82.5t-66.5 27.5q-89 0 -89 -110zM906 160q0 -54 21 -80t67 -26q47 0 67.5 26t20.5 80q0 110 -88 110t-88 -110z" />
    <glyph glyph-name="guilsinglleft" unicode="&#x2039;" horiz-adv-x="403" 
d="M195 95l-117 160v23l117 167h131l-136 -180l136 -170h-131z" />
    <glyph glyph-name="guilsinglright" unicode="&#x203a;" horiz-adv-x="403" 
d="M208 95h-131l135 170l-135 180h131l117 -167v-23z" />
    <glyph glyph-name="fraction" unicode="&#x2044;" horiz-adv-x="281" 
d="M-156 -40l495 814h105l-495 -814h-105z" />
    <glyph glyph-name="uni2070" unicode="&#x2070;" horiz-adv-x="513" 
d="M465 571q0 -149 -49 -210.5t-160 -61.5t-160 61.5t-49 210.5q0 148 49 210t160 62t160 -62t49 -210zM144 571q0 -105 26.5 -145.5t85.5 -40.5t85.5 40.5t26.5 145.5t-26.5 145.5t-85.5 40.5t-85.5 -40.5t-26.5 -145.5z" />
    <glyph glyph-name="uni2074" unicode="&#x2074;" horiz-adv-x="460" 
d="M290 309v99h-265v83l212 342h146v-342h60v-83h-60v-99h-93zM290 491v278l-160 -278h160z" />
    <glyph glyph-name="uni2075" unicode="&#x2075;" horiz-adv-x="470" 
d="M179 748l-19 -114q38 23 108 23q86 0 127 -51t41 -129q0 -81 -46.5 -129.5t-150.5 -48.5t-152 45t-48 108h100q0 -29 25.5 -51t74.5 -22q99 0 99 98q0 48 -25.5 75t-72.5 27q-32 0 -55.5 -10t-30.5 -17.5t-10 -12.5h-91l45 290h309v-84z" />
    <glyph glyph-name="uni2076" unicode="&#x2076;" horiz-adv-x="496" 
d="M456 476q0 -80 -47.5 -128.5t-155.5 -48.5q-112 -1 -159 58t-47 185q0 166 47 233.5t160 67.5q97 0 141 -46.5t44 -108.5h-95q0 29 -22 50.5t-68 21.5q-48 0 -72.5 -29.5t-32.5 -108.5q48 39 130 39q91 0 134 -52t43 -133zM258 580q-75 0 -112 -58q2 -75 28 -108t80 -33
q101 0 101 99q0 100 -97 100z" />
    <glyph glyph-name="uni2077" unicode="&#x2077;" horiz-adv-x="389" 
d="M100 309q0 67 18 135.5t43 119.5t50.5 92t43.5 62l18 22l-261 -1v92h368v-92q-7 -8 -19.5 -23.5t-43.5 -63.5t-55 -96t-43.5 -116.5t-19.5 -130.5h-99z" />
    <glyph glyph-name="uni2078" unicode="&#x2078;" horiz-adv-x="493" 
d="M250 299q-111 0 -158 40.5t-47 115.5q0 63 28 98t54 37q-20 2 -42.5 30.5t-22.5 77.5q0 145 188 145t188 -145q0 -50 -23 -78t-44 -30q27 -2 55.5 -37t28.5 -98q0 -75 -47 -115.5t-158 -40.5zM250 770q-91 0 -91 -81q0 -66 91 -66t91 66q0 81 -91 81zM250 549
q-101 0 -101 -83q0 -84 101 -84t101 84q0 83 -101 83z" />
    <glyph glyph-name="uni2079" unicode="&#x2079;" horiz-adv-x="496" 
d="M456 590q0 -165 -45.5 -228t-162.5 -63q-104 0 -150.5 46.5t-46.5 106.5h96q0 -28 24.5 -49t76.5 -21q48 0 72.5 26t33.5 100q-47 -40 -127 -40q-180 0 -180 196q0 81 47.5 130t154.5 49q114 0 160.5 -59.5t46.5 -193.5zM245 551q75 0 112 60q-2 81 -28 115t-80 34
q-101 0 -101 -99q0 -110 97 -110z" />
    <glyph glyph-name="Euro" unicode="&#x20ac;" horiz-adv-x="626" 
d="M215 228q13 -73 47.5 -107.5t98.5 -34.5q54 0 86 25.5t35 74.5h100q-9 -194 -226 -194q-123 0 -183.5 57.5t-75.5 178.5h-80v80h73v75h-73v80h78q15 126 75.5 186.5t185.5 60.5q112 0 169 -53.5t60 -153.5h-101q-2 53 -34.5 83t-88.5 30q-66 0 -101 -37.5t-46 -115.5h219
v-80h-226v-75h226v-80h-218z" />
    <glyph glyph-name="uni20BD" unicode="&#x20bd;" horiz-adv-x="657" 
d="M107 0v156h-90v84h90v71h-90v91l90 -1v313h218q165 0 232.5 -43t67.5 -159q0 -117 -67.5 -159t-232.5 -42h-100v-71h175v-84h-175v-156h-118zM225 624v-223h114q81 0 122.5 22.5t41.5 88.5q0 67 -41.5 89.5t-122.5 22.5h-114z" />
    <glyph glyph-name="uni2116" unicode="&#x2116;" horiz-adv-x="1267" 
d="M1168 479q0 -121 -49.5 -182.5t-171.5 -61.5q-120 0 -170 61.5t-50 182.5t50 183t170 63q121 1 171 -61.5t50 -184.5zM74 0l3 714h121l349 -544l-4 544h107v-714h-122l-351 548l2 -548h-105zM836 479q0 -82 25.5 -119.5t86.5 -37.5t86 37.5t25 119.5q0 81 -25.5 119.5
t-86.5 38.5t-86 -38t-25 -120zM726 83v98h443v-98h-443z" />
    <glyph glyph-name="uni2117" unicode="&#x2117;" horiz-adv-x="833" 
d="M787 348q0 -83 -19 -150.5t-60.5 -122t-115.5 -84.5t-176 -30q-101 0 -174.5 30t-115 84.5t-61 122t-19.5 150.5q0 66 11.5 122.5t39 107t69.5 86t105.5 56t144.5 20.5q102 0 176 -30.5t115.5 -86t60.5 -123.5t19 -152zM124 348q0 -317 292 -317q293 0 293 317
q0 322 -293 322q-81 0 -139.5 -25t-91 -71t-47 -101.5t-14.5 -124.5zM273 139v421h167q86 0 124 -31.5t38 -114.5q0 -86 -37 -115.5t-127 -29.5h-87v-130h-78zM351 497v-165h81q47 0 69 15.5t22 66.5q0 52 -22.5 67.5t-68.5 15.5h-81z" />
    <glyph glyph-name="uni2120" unicode="&#x2120;" horiz-adv-x="811" 
d="M323 471q0 -102 -136 -101q-70 0 -102 28t-32 89h62q0 -67 71 -67q71 -2 71 49q0 24 -20.5 37t-50 19.5t-58.5 15.5t-50 33t-21 64q2 96 129 96q72 -1 100.5 -27.5t28.5 -79.5h-61q0 27 -14 41.5t-52 15.5q-66 0 -66 -49q0 -22 20.5 -34.5t50 -19.5t59.5 -16.5
t50.5 -32.5t20.5 -61zM376 378v349h92l90 -293l92 293h94l-1 -349h-60l6 287l-99 -287h-65l-95 291l5 -291h-59z" />
    <glyph glyph-name="trademark" unicode="&#x2122;" horiz-adv-x="774" 
d="M137 379v290h-100v58h264v-58h-99v-290h-65zM332 378v349h93l90 -295l92 295h93v-349h-60l5 284l-98 -284h-66l-95 293l6 -293h-60z" />
    <glyph glyph-name="oneeighth" unicode="&#x215b;" horiz-adv-x="1017" 
d="M104 -40l495 814h105l-495 -814h-105zM101 235v412l-93 -41v100l128 55h58v-526h-93zM774 -10q-111 0 -158 40.5t-47 115.5q0 63 28 98t54 37q-20 2 -42.5 30.5t-22.5 77.5q0 145 188 145t188 -145q0 -50 -23 -78t-44 -30q27 -2 55.5 -37t28.5 -98q0 -75 -47 -115.5
t-158 -40.5zM774 461q-91 0 -91 -81q0 -66 91 -66t91 66q0 81 -91 81zM774 240q-101 0 -101 -83q0 -84 101 -84t101 84q0 83 -101 83z" />
    <glyph glyph-name="threeeighths" unicode="&#x215c;" horiz-adv-x="1192" 
d="M279 -40l495 814h105l-495 -814h-105zM276 567q74 -14 106.5 -56t32.5 -114q0 -77 -46.5 -124.5t-150.5 -47.5q-102 0 -147.5 47t-45.5 121h97q0 -35 24 -58t70 -23q98 0 98 92q0 46 -29 72t-84 26l-62 -4v68l134 104l-225 -3v88h357v-83zM949 -10q-111 0 -158 40.5
t-47 115.5q0 63 28 98t54 37q-20 2 -42.5 30.5t-22.5 77.5q0 145 188 145t188 -145q0 -50 -23 -78t-44 -30q27 -2 55.5 -37t28.5 -98q0 -75 -47 -115.5t-158 -40.5zM949 461q-91 0 -91 -81q0 -66 91 -66t91 66q0 81 -91 81zM949 240q-101 0 -101 -83q0 -84 101 -84t101 84
q0 83 -101 83z" />
    <glyph glyph-name="fiveeighths" unicode="&#x215d;" horiz-adv-x="1213" 
d="M300 -40l495 814h105l-495 -814h-105zM179 674l-19 -114q38 23 108 23q86 0 127 -51t41 -129q0 -81 -46.5 -129.5t-150.5 -48.5t-152 45t-48 108h100q0 -29 25.5 -51t74.5 -22q99 0 99 98q0 48 -25.5 75t-72.5 27q-32 0 -55.5 -10t-30.5 -17.5t-10 -12.5h-91l46 290h308
v-84zM970 -10q-111 0 -158 40.5t-47 115.5q0 63 28 98t54 37q-20 2 -42.5 30.5t-22.5 77.5q0 145 188 145t188 -145q0 -50 -23 -78t-44 -30q27 -2 55.5 -37t28.5 -98q0 -75 -47 -115.5t-158 -40.5zM970 461q-91 0 -91 -81q0 -66 91 -66t91 66q0 81 -91 81zM970 240
q-101 0 -101 -83q0 -84 101 -84t101 84q0 83 -101 83z" />
    <glyph glyph-name="seveneighths" unicode="&#x215e;" horiz-adv-x="1082" 
d="M169 -40l495 814h105l-495 -814h-105zM100 235q0 67 18 135.5t43 119.5t50.5 92t43.5 62l18 22l-261 -1v92h368v-92q-7 -8 -19.5 -23.5t-43.5 -63.5t-55 -96t-43.5 -116.5t-19.5 -130.5h-99zM839 -10q-111 0 -158 40.5t-47 115.5q0 63 28 98t54 37q-20 2 -42.5 30.5
t-22.5 77.5q0 145 188 145t188 -145q0 -50 -23 -78t-44 -30q27 -2 55.5 -37t28.5 -98q0 -75 -47 -115.5t-158 -40.5zM839 461q-91 0 -91 -81q0 -66 91 -66t91 66q0 81 -91 81zM839 240q-101 0 -101 -83q0 -84 101 -84t101 84q0 83 -101 83z" />
    <glyph glyph-name="arrowleft" unicode="&#x2190;" horiz-adv-x="689" 
d="M650 231l-450 16l189 -150l-62 -70l-269 225v74l269 225l62 -70l-188 -150l449 16v-116z" />
    <glyph glyph-name="arrowup" unicode="&#x2191;" horiz-adv-x="597" 
d="M240 -3l16 448l-150 -187l-69 62l224 269h74l225 -269l-70 -62l-150 188l16 -449h-116z" />
    <glyph glyph-name="arrowright" unicode="&#x2192;" horiz-adv-x="689" 
d="M39 344l449 -17l-188 151l62 69l269 -225v-73l-269 -225l-62 70l188 150l-449 -16v116z" />
    <glyph glyph-name="arrowdown" unicode="&#x2193;" horiz-adv-x="586" 
d="M351 578l-16 -450l150 189l70 -62l-225 -269h-74l-225 269l70 62l150 -187l-16 448h116z" />
    <glyph glyph-name="arrowboth" unicode="&#x2194;" horiz-adv-x="954" 
d="M629 536l267 -224v-75l-267 -224l-62 70l181 144l-543 -1l184 -146l-62 -70l-269 224v74l269 225l62 -69l-185 -148l549 2l-185 149z" />
    <glyph glyph-name="arrowupdn" unicode="&#x2195;" horiz-adv-x="600" 
d="M339 -157h-75l-224 267l70 62l145 -181l-2 560l-146 -184l-70 62l224 270h75l224 -270l-69 -61l-146 183l2 -563l147 183l69 -61z" />
    <glyph glyph-name="uni2196" unicode="&#x2196;" horiz-adv-x="573" 
d="M458 42l-307 329l27 -239l-93 -5l-31 349l52 52l349 -31l-5 -93l-240 27l330 -307z" />
    <glyph glyph-name="uni2197" unicode="&#x2197;" horiz-adv-x="574" 
d="M33 125l329 306l-238 -27l-6 93l349 31l53 -52l-32 -349l-92 5l26 239l-306 -329z" />
    <glyph glyph-name="uni2198" unicode="&#x2198;" horiz-adv-x="574" 
d="M116 536l306 -329l-26 239l92 5l32 -349l-53 -52l-349 31l6 93l239 -27l-330 307z" />
    <glyph glyph-name="uni2199" unicode="&#x2199;" horiz-adv-x="574" 
d="M540 453l-330 -306l240 27l5 -93l-349 -31l-52 52l31 349l93 -5l-27 -240l307 329z" />
    <glyph glyph-name="minus" unicode="&#x2212;" horiz-adv-x="448" 
d="M37 267v103h374v-103h-374z" />
    <glyph glyph-name="infinity" unicode="&#x221e;" horiz-adv-x="805" 
d="M213 124q-177 0 -177 180t178 180q61 -1 104 -32.5t84 -87.5q42 56 85 87.5t104 32.5q89 0 133.5 -47t44.5 -133t-44.5 -133t-133.5 -47q-61 0 -104 31.5t-85 88.5q-40 -56 -84 -88t-105 -32zM122 304q0 -97 97 -97q42 0 74 25t66 72q-34 46 -65.5 71t-73.5 26
q-49 0 -73.5 -26t-24.5 -71zM683 304q0 45 -24.5 70.5t-73.5 26.5q-42 0 -74 -25t-66 -72q34 -47 66 -72t74 -25q49 0 73.5 26t24.5 71z" />
    <glyph glyph-name="approxequal" unicode="&#x2248;" horiz-adv-x="574" 
d="M56 330q0 151 131 151q50 0 103.5 -27.5t87.5 -27.5t51.5 19t17.5 36h71q0 -151 -131 -151q-50 0 -103.5 27.5t-87.5 27.5t-51.5 -19t-17.5 -36h-71zM56 149q0 151 131 151q50 0 103.5 -27.5t87.5 -27.5t51.5 19t17.5 36h71q0 -151 -131 -151q-50 0 -103.5 27.5
t-87.5 27.5t-51.5 -19t-17.5 -36h-71z" />
    <glyph glyph-name="notequal" unicode="&#x2260;" horiz-adv-x="533" 
d="M93 98l46 80h-75v102h133l32 56h-165v103h225l42 73h90l-42 -73h97v-103h-157l-32 -56h189v-102h-247l-46 -80h-90z" />
    <glyph glyph-name="lessequal" unicode="&#x2264;" horiz-adv-x="546" 
d="M469 179l-400 137v121l400 126v-100l-317 -87l317 -96v-101zM67 73v103h402v-103h-402z" />
    <glyph glyph-name="greaterequal" unicode="&#x2265;" horiz-adv-x="546" 
d="M77 179v101l315 96l-315 87v100l401 -126v-121zM77 73v103h402v-103h-402z" />
    <glyph glyph-name="uni2661" unicode="&#x2661;" horiz-adv-x="754" 
d="M527 610q70 0 118.5 -49t48.5 -134q0 -48 -17.5 -97.5t-45.5 -90.5t-62 -80t-67.5 -68.5l-61.5 -52t-46 -34.5l-17 -11l-17 11q-17 12 -45.5 34.5t-62 52t-68 68.5t-62 80t-45 90.5t-16.5 97.5q1 85 49 134t117 49q85 0 151 -66q0 3 15.5 17.5t52.5 31.5t81 17zM377 131
l1 1q18 13 39 30.5t61 56t65.5 85.5t25.5 90q0 48 -25 74t-61 26q-29 0 -54.5 -16t-36.5 -32l-11 -17h-7q-4 7 -12 18t-35 29t-56 18q-36 0 -60.5 -26t-25.5 -74q0 -21 6 -43.5t17 -43t25.5 -40.5t30.5 -37l32 -32.5t30.5 -27.5t26 -20.5t17.5 -13.5z" />
    <glyph glyph-name="i.loclTRK" horiz-adv-x="256" 
d="M70 633v130h117v-130h-117zM70 0v540h116v-540h-116z" />
    <glyph glyph-name="a.sc" horiz-adv-x="580" 
d="M6 0l224 592h122l222 -592h-122l-39 118h-248l-39 -118h-120zM196 214h186l-92 284z" />
    <glyph glyph-name="aacute.sc" horiz-adv-x="580" 
d="M239 680l81 153h120l-98 -153h-103zM6 0l224 592h122l222 -592h-122l-39 118h-248l-39 -118h-120zM196 214h186l-92 284z" />
    <glyph glyph-name="abreve.sc" horiz-adv-x="580" 
d="M460 812q0 -50 -41.5 -92.5t-126.5 -42.5t-126.5 42.5t-41.5 92.5h98q0 -21 20 -41t50 -20q29 0 49.5 20t20.5 41h98zM6 0l224 592h122l222 -592h-122l-39 118h-248l-39 -118h-120zM196 214h186l-92 284z" />
    <glyph glyph-name="acircumflex.sc" horiz-adv-x="580" 
d="M466 679h-109l-67 78l-66 -78h-107l116 150h114zM6 0l224 592h122l222 -592h-122l-39 118h-248l-39 -118h-120zM196 214h186l-92 284z" />
    <glyph glyph-name="adieresis.sc" horiz-adv-x="580" 
d="M145 679v136h107v-136h-107zM331 679v136h107v-136h-107zM6 0l224 592h122l222 -592h-122l-39 118h-248l-39 -118h-120zM196 214h186l-92 284z" />
    <glyph glyph-name="uni1EA1.sc" horiz-adv-x="580" 
d="M6 0l224 592h122l222 -592h-122l-39 118h-248l-39 -118h-120zM196 214h186l-92 284zM231 -187v124h116v-124h-116z" />
    <glyph glyph-name="agrave.sc" horiz-adv-x="580" 
d="M345 680h-103l-98 153h119zM6 0l224 592h122l222 -592h-122l-39 118h-248l-39 -118h-120zM196 214h186l-92 284z" />
    <glyph glyph-name="amacron.sc" horiz-adv-x="580" 
d="M155 787h275v-82h-275v82zM6 0l224 592h122l222 -592h-122l-39 118h-248l-39 -118h-120zM196 214h186l-92 284z" />
    <glyph glyph-name="aogonek.sc" horiz-adv-x="580" 
d="M362 -120q0 31 20.5 60.5t37.5 42.5t31 20l-38 115h-248l-39 -118h-120l224 592h122l222 -592h-20q-3 -2 -8.5 -5t-18.5 -13t-23 -20t-18.5 -25t-8.5 -30q0 -36 36 -36q10 0 21.5 3.5t17.5 6.5l7 3v-69q-25 -21 -96 -21q-53 0 -77 24t-24 62zM196 214h186l-92 284z" />
    <glyph glyph-name="aring.sc" horiz-adv-x="580" 
d="M407 768q0 -50 -30.5 -78t-82.5 -28q-53 0 -83.5 28t-30.5 78t30.5 78t83.5 28q52 0 82.5 -28t30.5 -78zM257 768q0 -17 10 -27.5t27 -10.5q16 0 26 10.5t10 27.5t-9.5 27t-26.5 10t-27 -10t-10 -27zM6 0l224 592h122l222 -592h-122l-39 118h-248l-39 -118h-120zM196 214
h186l-92 284z" />
    <glyph glyph-name="aringacute.sc" horiz-adv-x="580" 
d="M245 904l81 153h120l-98 -153h-103zM407 768q0 -50 -30.5 -78t-82.5 -28q-53 0 -83.5 28t-30.5 78t30.5 78t83.5 28q52 0 82.5 -28t30.5 -78zM257 768q0 -17 10 -27.5t27 -10.5q16 0 26 10.5t10 27.5t-9.5 27t-26.5 10t-27 -10t-10 -27zM6 0l224 592h122l222 -592h-122
l-39 118h-248l-39 -118h-120zM196 214h186l-92 284z" />
    <glyph glyph-name="atilde.sc" horiz-adv-x="580" 
d="M463 811q0 -132 -102 -132q-40 0 -73 23.5t-51 23.5q-21 0 -30 -14.5t-9 -29.5h-77q0 133 103 133q39 0 72 -24t52 -24q21 0 30 14.5t9 29.5h76zM6 0l224 592h122l222 -592h-122l-39 118h-248l-39 -118h-120zM196 214h186l-92 284z" />
    <glyph glyph-name="ae.sc" horiz-adv-x="811" 
d="M6 0l306 592h471v-97h-291v-146h249v-90h-249v-162h297v-97h-409v130h-186l-64 -130h-124zM380 221v285l-141 -285h141z" />
    <glyph glyph-name="aeacute.sc" horiz-adv-x="811" 
d="M336 680l81 153h120l-98 -153h-103zM6 0l306 592h471v-97h-291v-146h249v-90h-249v-162h297v-97h-409v130h-186l-64 -130h-124zM380 221v285l-141 -285h141z" />
    <glyph glyph-name="b.sc" horiz-adv-x="564" 
d="M90 -1h-30v595h211q140 0 192.5 -36t52.5 -116q0 -98 -76 -135q92 -35 92 -143q0 -47 -9.5 -76t-37.5 -50.5t-80 -30.5t-136 -9h-179v1zM172 508v-159h122q62 -1 87.5 18t25.5 61q0 43 -29 61.5t-100 18.5h-106zM172 264v-181h106q83 0 114 19t31 70q0 47 -31 69.5
t-98 22.5h-122z" />
    <glyph glyph-name="ordfeminine.sc" horiz-adv-x="379" 
d="M271 289l-7 30q-45 -40 -111 -40q-127 0 -127 109q0 118 145 118q46 0 86 -4q-2 39 -15.5 55t-51.5 16q-71 0 -71 -52h-76q0 119 142 119q44 0 74 -9.5t46 -22.5t24.5 -40t10 -48.5t1.5 -60.5v-79l7 -91h-77zM171 349q29 0 52.5 12t33.5 28v47q-24 3 -63 3
q-42 0 -62 -10.5t-20 -36.5q0 -43 59 -43z" />
    <glyph glyph-name="ordmasculine.sc" horiz-adv-x="376" 
d="M352 460q0 -90 -37.5 -135t-126.5 -45t-126 45t-37 135q0 91 37 136t126 45t126.5 -45t37.5 -136zM110 460q0 -59 17.5 -85t60.5 -26t61 26t18 85t-18 86t-61 27t-60.5 -27t-17.5 -86z" />
    <glyph glyph-name="c.sc" horiz-adv-x="566" 
d="M533 216q-2 -123 -61 -177.5t-178 -54.5q-135 0 -196 74t-61 238q0 163 61 237.5t196 74.5q120 0 179 -55.5t60 -176.5h-110q-4 70 -35 100.5t-94 30.5q-76 0 -109.5 -48.5t-33.5 -162.5t33.5 -162.5t109.5 -48.5q62 0 93.5 30.5t35.5 100.5h110z" />
    <glyph glyph-name="cacute.sc" horiz-adv-x="566" 
d="M240 685l81 153h120l-98 -153h-103zM533 216q-2 -123 -61 -177.5t-178 -54.5q-135 0 -196 74t-61 238q0 163 61 237.5t196 74.5q120 0 179 -55.5t60 -176.5h-110q-4 70 -35 100.5t-94 30.5q-76 0 -109.5 -48.5t-33.5 -162.5t33.5 -162.5t109.5 -48.5q62 0 93.5 30.5
t35.5 100.5h110z" />
    <glyph glyph-name="ccaron.sc" horiz-adv-x="566" 
d="M467 834l-119 -150h-114l-115 150h105l66 -75l67 75h110zM533 216q-2 -123 -61 -177.5t-178 -54.5q-135 0 -196 74t-61 238q0 163 61 237.5t196 74.5q120 0 179 -55.5t60 -176.5h-110q-4 70 -35 100.5t-94 30.5q-76 0 -109.5 -48.5t-33.5 -162.5t33.5 -162.5t109.5 -48.5
q62 0 93.5 30.5t35.5 100.5h110z" />
    <glyph glyph-name="ccedilla.sc" horiz-adv-x="566" 
d="M410 -148q0 -51 -33.5 -74t-116.5 -23q-23 0 -43.5 2t-28.5 4l-9 2v68q0 -1 5 -2.5t17.5 -3t27.5 -1.5q37 0 53 8.5t16 30.5q0 43 -86 43h-4l37 81q-109 12 -158.5 86t-49.5 223q0 163 61 237.5t196 74.5q120 0 179 -55.5t60 -176.5h-110q-4 70 -35 100.5t-94 30.5
q-76 0 -109.5 -48.5t-33.5 -162.5t33.5 -162.5t109.5 -48.5q62 0 93.5 30.5t35.5 100.5h110q-2 -107 -47 -162t-135 -66l-24 -51q83 -11 83 -85z" />
    <glyph glyph-name="ccircumflex.sc" horiz-adv-x="566" 
d="M467 684h-109l-67 78l-66 -78h-107l116 150h114zM533 216q-2 -123 -61 -177.5t-178 -54.5q-135 0 -196 74t-61 238q0 163 61 237.5t196 74.5q120 0 179 -55.5t60 -176.5h-110q-4 70 -35 100.5t-94 30.5q-76 0 -109.5 -48.5t-33.5 -162.5t33.5 -162.5t109.5 -48.5
q62 0 93.5 30.5t35.5 100.5h110z" />
    <glyph glyph-name="cdotaccent.sc" horiz-adv-x="566" 
d="M235 690v130h117v-130h-117zM533 216q-2 -123 -61 -177.5t-178 -54.5q-135 0 -196 74t-61 238q0 163 61 237.5t196 74.5q120 0 179 -55.5t60 -176.5h-110q-4 70 -35 100.5t-94 30.5q-76 0 -109.5 -48.5t-33.5 -162.5t33.5 -162.5t109.5 -48.5q62 0 93.5 30.5t35.5 100.5
h110z" />
    <glyph glyph-name="d.sc" horiz-adv-x="582" 
d="M60 594h192q92 0 149.5 -17t89 -56t43 -91t11.5 -134t-11.5 -134t-43 -91t-89 -55.5t-149.5 -16.5h-192v595zM173 496v-401h101q87 -1 121.5 43t34.5 158q0 113 -34 156.5t-122 43.5h-101z" />
    <glyph glyph-name="eth.sc" horiz-adv-x="582" 
d="M60 255h-67v81h67v258h192q92 0 149.5 -17t89 -56t43 -91t11.5 -134t-11.5 -134t-43 -91t-89 -55.5t-149.5 -16.5h-192v256zM173 255v-160h101q87 -1 121.5 43t34.5 158q0 113 -34 156.5t-122 43.5h-101v-160h98v-81h-98z" />
    <glyph glyph-name="dcaron.sc" horiz-adv-x="582" 
d="M449 829l-119 -150h-114l-115 150h105l66 -75l67 75h110zM60 594h192q92 0 149.5 -17t89 -56t43 -91t11.5 -134t-11.5 -134t-43 -91t-89 -55.5t-149.5 -16.5h-192v595zM173 496v-401h101q87 -1 121.5 43t34.5 158q0 113 -34 156.5t-122 43.5h-101z" />
    <glyph glyph-name="dcroat.sc" horiz-adv-x="582" 
d="M60 255h-67v81h67v258h192q92 0 149.5 -17t89 -56t43 -91t11.5 -134t-11.5 -134t-43 -91t-89 -55.5t-149.5 -16.5h-192v256zM173 255v-160h101q87 -1 121.5 43t34.5 158q0 113 -34 156.5t-122 43.5h-101v-160h98v-81h-98z" />
    <glyph glyph-name="e.sc" horiz-adv-x="490" 
d="M60 0v592h403v-97h-291v-142h249v-99h-249v-157h296v-97h-408z" />
    <glyph glyph-name="eacute.sc" horiz-adv-x="490" 
d="M207 680l81 153h120l-98 -153h-103zM60 0v592h403v-97h-291v-142h249v-99h-249v-157h296v-97h-408z" />
    <glyph glyph-name="ebreve.sc" horiz-adv-x="490" 
d="M428 812q0 -50 -41.5 -92.5t-126.5 -42.5t-126.5 42.5t-41.5 92.5h98q0 -21 20 -41t50 -20q29 0 49.5 20t20.5 41h98zM60 0v592h403v-97h-291v-142h249v-99h-249v-157h296v-97h-408z" />
    <glyph glyph-name="ecaron.sc" horiz-adv-x="490" 
d="M434 829l-119 -150h-114l-115 150h105l66 -75l67 75h110zM60 0v592h403v-97h-291v-142h249v-99h-249v-157h296v-97h-408z" />
    <glyph glyph-name="ecircumflex.sc" horiz-adv-x="490" 
d="M434 679h-109l-67 78l-66 -78h-107l116 150h114zM60 0v592h403v-97h-291v-142h249v-99h-249v-157h296v-97h-408z" />
    <glyph glyph-name="edieresis.sc" horiz-adv-x="490" 
d="M113 679v136h107v-136h-107zM299 679v136h107v-136h-107zM60 0v592h403v-97h-291v-142h249v-99h-249v-157h296v-97h-408z" />
    <glyph glyph-name="edotaccent.sc" horiz-adv-x="490" 
d="M202 685v130h117v-130h-117zM60 0v592h403v-97h-291v-142h249v-99h-249v-157h296v-97h-408z" />
    <glyph glyph-name="uni1EB9.sc" horiz-adv-x="490" 
d="M60 0v592h403v-97h-291v-142h249v-99h-249v-157h296v-97h-408zM207 -187v124h116v-124h-116z" />
    <glyph glyph-name="egrave.sc" horiz-adv-x="490" 
d="M313 680h-103l-98 153h119zM60 0v592h403v-97h-291v-142h249v-99h-249v-157h296v-97h-408z" />
    <glyph glyph-name="emacron.sc" horiz-adv-x="490" 
d="M123 787h275v-82h-275v82zM60 0v592h403v-97h-291v-142h249v-99h-249v-157h296v-97h-408z" />
    <glyph glyph-name="eogonek.sc" horiz-adv-x="490" 
d="M276 -120q0 68 83 120h-299v592h403v-97h-291v-142h249v-99h-249v-157h296v-97q-3 -2 -8.5 -5t-18.5 -13t-23 -20t-18.5 -25t-8.5 -30q0 -36 36 -36q10 0 21.5 3.5t17.5 6.5l7 3v-69q-25 -21 -96 -21q-53 0 -77 24t-24 62z" />
    <glyph glyph-name="uni1EBD.sc" horiz-adv-x="490" 
d="M431 811q0 -132 -102 -132q-40 0 -73 23.5t-51 23.5q-21 0 -30 -14.5t-9 -29.5h-77q0 133 103 133q39 0 72 -24t52 -24q21 0 30 14.5t9 29.5h76zM60 0v592h403v-97h-291v-142h249v-99h-249v-157h296v-97h-408z" />
    <glyph glyph-name="f.sc" horiz-adv-x="464" 
d="M60 0v592h395v-97h-283v-158h241v-101h-241v-236h-112z" />
    <glyph glyph-name="g.sc" horiz-adv-x="570" 
d="M526 74q0 -3 -8 -12t-26.5 -22.5t-44 -26t-66.5 -21t-88 -8.5q-135 -1 -195.5 73.5t-60.5 237.5q0 164 60.5 238.5t195.5 74.5q233 0 233 -216h-106q-1 55 -34 85t-93 30q-75 0 -108.5 -49t-33.5 -163q0 -116 34 -165t111 -49q38 0 69 9.5t45 20.5t14 20v82h-107v84h209
v-223z" />
    <glyph glyph-name="gbreve.sc" horiz-adv-x="570" 
d="M459 817q0 -50 -41.5 -92.5t-126.5 -42.5t-126.5 42.5t-41.5 92.5h98q0 -21 20 -41t50 -20q29 0 49.5 20t20.5 41h98zM526 74q0 -3 -8 -12t-26.5 -22.5t-44 -26t-66.5 -21t-88 -8.5q-135 -1 -195.5 73.5t-60.5 237.5q0 164 60.5 238.5t195.5 74.5q233 0 233 -216h-106
q-1 55 -34 85t-93 30q-75 0 -108.5 -49t-33.5 -163q0 -116 34 -165t111 -49q38 0 69 9.5t45 20.5t14 20v82h-107v84h209v-223z" />
    <glyph glyph-name="gcaron.sc" horiz-adv-x="570" 
d="M465 834l-119 -150h-114l-115 150h105l66 -75l67 75h110zM526 74q0 -3 -8 -12t-26.5 -22.5t-44 -26t-66.5 -21t-88 -8.5q-135 -1 -195.5 73.5t-60.5 237.5q0 164 60.5 238.5t195.5 74.5q233 0 233 -216h-106q-1 55 -34 85t-93 30q-75 0 -108.5 -49t-33.5 -163
q0 -116 34 -165t111 -49q38 0 69 9.5t45 20.5t14 20v82h-107v84h209v-223z" />
    <glyph glyph-name="gcircumflex.sc" horiz-adv-x="570" 
d="M465 684h-109l-67 78l-66 -78h-107l116 150h114zM526 74q0 -3 -8 -12t-26.5 -22.5t-44 -26t-66.5 -21t-88 -8.5q-135 -1 -195.5 73.5t-60.5 237.5q0 164 60.5 238.5t195.5 74.5q233 0 233 -216h-106q-1 55 -34 85t-93 30q-75 0 -108.5 -49t-33.5 -163q0 -116 34 -165
t111 -49q38 0 69 9.5t45 20.5t14 20v82h-107v84h209v-223z" />
    <glyph glyph-name="gcommaaccent.sc" horiz-adv-x="570" 
d="M526 74q0 -3 -8 -12t-26.5 -22.5t-44 -26t-66.5 -21t-88 -8.5q-135 -1 -195.5 73.5t-60.5 237.5q0 164 60.5 238.5t195.5 74.5q233 0 233 -216h-106q-1 55 -34 85t-93 30q-75 0 -108.5 -49t-33.5 -163q0 -116 34 -165t111 -49q38 0 69 9.5t45 20.5t14 20v82h-107v84h209
v-223zM220 -267q16 41 31 105q6 27 9.5 53t3.5 39l1 12h102q-6 -55 -24 -113q-10 -31 -21.5 -55t-17.5 -32l-7 -9h-77z" />
    <glyph glyph-name="gdotaccent.sc" horiz-adv-x="570" 
d="M233 690v130h117v-130h-117zM526 74q0 -3 -8 -12t-26.5 -22.5t-44 -26t-66.5 -21t-88 -8.5q-135 -1 -195.5 73.5t-60.5 237.5q0 164 60.5 238.5t195.5 74.5q233 0 233 -216h-106q-1 55 -34 85t-93 30q-75 0 -108.5 -49t-33.5 -163q0 -116 34 -165t111 -49q38 0 69 9.5
t45 20.5t14 20v82h-107v84h209v-223z" />
    <glyph glyph-name="h.sc" horiz-adv-x="591" 
d="M60 0v592h112v-239h248v239h111v-592h-111v255h-248v-255h-112z" />
    <glyph glyph-name="hbar.sc" horiz-adv-x="591" 
d="M531 401v-401h-111v255h-248v-255h-112v401h-71v90h71v101h112v-101h248v101h111v-101h70v-90h-70zM420 353v48h-248v-48h248z" />
    <glyph glyph-name="hcircumflex.sc" horiz-adv-x="591" 
d="M470 679h-109l-67 78l-66 -78h-107l116 150h114zM60 0v592h112v-239h248v239h111v-592h-111v255h-248v-255h-112z" />
    <glyph glyph-name="i.sc" horiz-adv-x="232" 
d="M60 0v592h112v-592h-112z" />
    <glyph glyph-name="iacute.sc" horiz-adv-x="232" 
d="M66 680l81 153h120l-98 -153h-103zM60 0v592h112v-592h-112z" />
    <glyph glyph-name="ibreve.sc" horiz-adv-x="232" 
d="M287 812q0 -50 -41.5 -92.5t-126.5 -42.5t-126.5 42.5t-41.5 92.5h98q0 -21 20 -41t50 -20q29 0 49.5 20t20.5 41h98zM60 0v592h112v-592h-112z" />
    <glyph glyph-name="icircumflex.sc" horiz-adv-x="232" 
d="M293 679h-109l-67 78l-66 -78h-107l116 150h114zM60 0v592h112v-592h-112z" />
    <glyph glyph-name="idieresis.sc" horiz-adv-x="232" 
d="M-28 679v136h107v-136h-107zM158 679v136h107v-136h-107zM60 0v592h112v-592h-112z" />
    <glyph glyph-name="i.sc.loclTRK" horiz-adv-x="232" 
d="M61 685v130h117v-130h-117zM60 0v592h112v-592h-112z" />
    <glyph glyph-name="uni1ECB.sc" horiz-adv-x="232" 
d="M60 0v592h112v-592h-112zM57 -191v124h116v-124h-116z" />
    <glyph glyph-name="igrave.sc" horiz-adv-x="232" 
d="M172 680h-103l-98 153h119zM60 0v592h112v-592h-112z" />
    <glyph glyph-name="ij.sc" horiz-adv-x="566" 
d="M60 0v592h112v-592h-112zM514 247q0 -50 -2.5 -82t-11 -62.5t-24 -48t-41.5 -31t-63 -18.5t-89 -5h-48v97h48q72 0 95.5 30.5t23.5 119.5v345h112v-345z" />
    <glyph glyph-name="imacron.sc" horiz-adv-x="232" 
d="M-18 787h275v-82h-275v82zM60 0v592h112v-592h-112z" />
    <glyph glyph-name="iogonek.sc" horiz-adv-x="232" 
d="M-32 -120q0 21 9.5 41.5t21.5 34.5t27 26t22.5 16.5t11.5 6.5v587h112v-592h-12q-3 -2 -8.5 -5t-18.5 -13t-23 -20t-18.5 -25t-8.5 -30q0 -36 36 -36q10 0 21.5 3.5t17.5 6.5l7 3v-69q-25 -21 -96 -21q-53 0 -77 24t-24 62z" />
    <glyph glyph-name="itilde.sc" horiz-adv-x="232" 
d="M290 811q0 -132 -102 -132q-40 0 -73 23.5t-51 23.5q-21 0 -30 -14.5t-9 -29.5h-77q0 133 103 133q39 0 72 -24t52 -24q21 0 30 14.5t9 29.5h76zM60 0v592h112v-592h-112z" />
    <glyph glyph-name="j.sc" horiz-adv-x="334" 
d="M282 247q0 -50 -2.5 -82t-11 -62.5t-24 -48t-41.5 -31t-63 -18.5t-89 -5h-48v97h48q72 0 95.5 30.5t23.5 119.5v345h112v-345z" />
    <glyph glyph-name="jcircumflex.sc" horiz-adv-x="334" 
d="M401 679h-109l-67 78l-66 -78h-107l116 150h114zM282 247q0 -50 -2.5 -82t-11 -62.5t-24 -48t-41.5 -31t-63 -18.5t-89 -5h-48v97h48q72 0 95.5 30.5t23.5 119.5v345h112v-345z" />
    <glyph glyph-name="k.sc" horiz-adv-x="560" 
d="M60 0v592h112v-309l240 309h138l-197 -243l200 -349h-126l-147 260l-108 -134v-126h-112z" />
    <glyph glyph-name="kcommaaccent.sc" horiz-adv-x="560" 
d="M60 0v592h112v-309l240 309h138l-197 -243l200 -349h-126l-147 260l-108 -134v-126h-112zM195 -251q16 41 31 105q6 27 9.5 53t4.5 39v12h102q-6 -55 -24 -113q-10 -31 -21.5 -55t-18.5 -32l-6 -9h-77z" />
    <glyph glyph-name="l.sc" horiz-adv-x="428" 
d="M60 0v592h112v-488h247v-104h-359z" />
    <glyph glyph-name="lacute.sc" horiz-adv-x="428" 
d="M68 680l81 153h120l-98 -153h-103zM60 0v592h112v-488h247v-104h-359z" />
    <glyph glyph-name="lcaron.sc" horiz-adv-x="428" 
d="M236 461l54 167h93l-79 -167h-68zM60 0v592h112v-488h247v-104h-359z" />
    <glyph glyph-name="lcommaaccent.sc" horiz-adv-x="428" 
d="M60 0v592h112v-488h247v-104h-359zM147 -252q16 41 31 105q6 27 9.5 53t4.5 38v13h102q-6 -55 -24 -113q-10 -31 -21.5 -55t-18.5 -33l-6 -8h-77z" />
    <glyph glyph-name="ldot.sc" horiz-adv-x="428" 
d="M60 0v592h112v-488h247v-104h-359zM253 249v136h118v-136h-118z" />
    <glyph glyph-name="lslash.sc" horiz-adv-x="428" 
d="M172 290v-186h247v-104h-359v228l-76 -41l-37 74l113 62v269h112v-208l82 45l37 -74z" />
    <glyph glyph-name="m.sc" horiz-adv-x="790" 
d="M60 0v592h151l181 -487l180 487h158l-1 -592h-108l7 460l-182 -460h-110l-178 461l8 -461h-106z" />
    <glyph glyph-name="n.sc" horiz-adv-x="619" 
d="M159 455l5 -455h-104l2 592h121l277 -451l-7 451h106v-592h-119z" />
    <glyph glyph-name="nacute.sc" horiz-adv-x="619" 
d="M258 680l81 153h120l-98 -153h-103zM159 455l5 -455h-104l2 592h121l277 -451l-7 451h106v-592h-119z" />
    <glyph glyph-name="ncaron.sc" horiz-adv-x="619" 
d="M485 829l-119 -150h-114l-115 150h105l66 -75l67 75h110zM159 455l5 -455h-104l2 592h121l277 -451l-7 451h106v-592h-119z" />
    <glyph glyph-name="ncommaaccent.sc" horiz-adv-x="619" 
d="M159 455l5 -455h-104l2 592h121l277 -451l-7 451h106v-592h-119zM235 -251q16 41 31 105q6 27 9.5 53t4.5 39v12h102q-6 -55 -24 -113q-10 -31 -21.5 -55t-18.5 -32l-6 -9h-77z" />
    <glyph glyph-name="eng.sc" horiz-adv-x="620" 
d="M560 592v-592q0 -91 -41 -140t-155 -49h-44v85h44q53 0 76.5 24t23.5 80l-305 447l6 -447h-105l2 592h117l282 -421l-5 421h104z" />
    <glyph glyph-name="uni0272.sc" horiz-adv-x="618" 
d="M159 453l2 -453q0 -94 -39 -141t-150 -47h-44v85h44q51 0 70 22.5t19 80.5l2 592h121l275 -445l-6 445h105v-592h-121z" />
    <glyph glyph-name="ntilde.sc" horiz-adv-x="619" 
d="M482 811q0 -132 -102 -132q-40 0 -73 23.5t-51 23.5q-21 0 -30 -14.5t-9 -29.5h-77q0 133 103 133q39 0 72 -24t52 -24q21 0 30 14.5t9 29.5h76zM159 455l5 -455h-104l2 592h121l277 -451l-7 451h106v-592h-119z" />
    <glyph glyph-name="o.sc" horiz-adv-x="592" 
d="M555 296q0 -164 -61.5 -238t-197.5 -74t-197.5 74t-61.5 238q0 163 61.5 237.5t197.5 74.5t197.5 -74.5t61.5 -237.5zM151 296q0 -119 34 -168.5t111 -49.5q78 0 111.5 49.5t33.5 168.5q0 118 -33.5 168t-111.5 50q-77 0 -111 -50t-34 -168z" />
    <glyph glyph-name="oacute.sc" horiz-adv-x="592" 
d="M243 685l81 153h120l-98 -153h-103zM555 296q0 -164 -61.5 -238t-197.5 -74t-197.5 74t-61.5 238q0 163 61.5 237.5t197.5 74.5t197.5 -74.5t61.5 -237.5zM151 296q0 -119 34 -168.5t111 -49.5q78 0 111.5 49.5t33.5 168.5q0 118 -33.5 168t-111.5 50q-77 0 -111 -50
t-34 -168z" />
    <glyph glyph-name="obreve.sc" horiz-adv-x="592" 
d="M464 817q0 -50 -41.5 -92.5t-126.5 -42.5t-126.5 42.5t-41.5 92.5h98q0 -21 20 -41t50 -20q29 0 49.5 20t20.5 41h98zM555 296q0 -164 -61.5 -238t-197.5 -74t-197.5 74t-61.5 238q0 163 61.5 237.5t197.5 74.5t197.5 -74.5t61.5 -237.5zM151 296q0 -119 34 -168.5
t111 -49.5q78 0 111.5 49.5t33.5 168.5q0 118 -33.5 168t-111.5 50q-77 0 -111 -50t-34 -168z" />
    <glyph glyph-name="ocircumflex.sc" horiz-adv-x="592" 
d="M470 684h-109l-67 78l-66 -78h-107l116 150h114zM555 296q0 -164 -61.5 -238t-197.5 -74t-197.5 74t-61.5 238q0 163 61.5 237.5t197.5 74.5t197.5 -74.5t61.5 -237.5zM151 296q0 -119 34 -168.5t111 -49.5q78 0 111.5 49.5t33.5 168.5q0 118 -33.5 168t-111.5 50
q-77 0 -111 -50t-34 -168z" />
    <glyph glyph-name="odieresis.sc" horiz-adv-x="592" 
d="M149 684v136h107v-136h-107zM335 684v136h107v-136h-107zM555 296q0 -164 -61.5 -238t-197.5 -74t-197.5 74t-61.5 238q0 163 61.5 237.5t197.5 74.5t197.5 -74.5t61.5 -237.5zM151 296q0 -119 34 -168.5t111 -49.5q78 0 111.5 49.5t33.5 168.5q0 118 -33.5 168
t-111.5 50q-77 0 -111 -50t-34 -168z" />
    <glyph glyph-name="uni1ECD.sc" horiz-adv-x="592" 
d="M555 296q0 -164 -61.5 -238t-197.5 -74t-197.5 74t-61.5 238q0 163 61.5 237.5t197.5 74.5t197.5 -74.5t61.5 -237.5zM151 296q0 -119 34 -168.5t111 -49.5q78 0 111.5 49.5t33.5 168.5q0 118 -33.5 168t-111.5 50q-77 0 -111 -50t-34 -168zM239 -194v124h116v-124h-116z
" />
    <glyph glyph-name="ograve.sc" horiz-adv-x="592" 
d="M349 685h-103l-98 153h119zM555 296q0 -164 -61.5 -238t-197.5 -74t-197.5 74t-61.5 238q0 163 61.5 237.5t197.5 74.5t197.5 -74.5t61.5 -237.5zM151 296q0 -119 34 -168.5t111 -49.5q78 0 111.5 49.5t33.5 168.5q0 118 -33.5 168t-111.5 50q-77 0 -111 -50t-34 -168z
" />
    <glyph glyph-name="ohungarumlaut.sc" horiz-adv-x="592" 
d="M141 685l77 153h119l-93 -153h-103zM312 685l94 153h120l-111 -153h-103zM555 296q0 -164 -61.5 -238t-197.5 -74t-197.5 74t-61.5 238q0 163 61.5 237.5t197.5 74.5t197.5 -74.5t61.5 -237.5zM151 296q0 -119 34 -168.5t111 -49.5q78 0 111.5 49.5t33.5 168.5
q0 118 -33.5 168t-111.5 50q-77 0 -111 -50t-34 -168z" />
    <glyph glyph-name="omacron.sc" horiz-adv-x="592" 
d="M159 792h275v-82h-275v82zM555 296q0 -164 -61.5 -238t-197.5 -74t-197.5 74t-61.5 238q0 163 61.5 237.5t197.5 74.5t197.5 -74.5t61.5 -237.5zM151 296q0 -119 34 -168.5t111 -49.5q78 0 111.5 49.5t33.5 168.5q0 118 -33.5 168t-111.5 50q-77 0 -111 -50t-34 -168z
" />
    <glyph glyph-name="uni01EB.sc" horiz-adv-x="592" 
d="M266 -95q0 41 34 79h-4q-136 0 -197.5 74t-61.5 238q0 163 61.5 237.5t197.5 74.5t197.5 -74.5t61.5 -237.5q0 -216 -112 -280q-62 -39 -62 -84q0 -36 36 -36q10 0 21.5 3t17.5 7l7 3v-69q-25 -21 -96 -21q-53 0 -77 24t-24 62zM151 296q0 -119 34 -168.5t111 -49.5
q78 0 111.5 49.5t33.5 168.5q0 118 -33.5 168t-111.5 50q-77 0 -111 -50t-34 -168z" />
    <glyph glyph-name="oslash.sc" horiz-adv-x="592" 
d="M4 -17l75 102q-42 72 -42 211q0 163 61.5 237.5t197.5 74.5q91 0 146 -32l21 29h127l-76 -103q41 -73 41 -206q0 -164 -61.5 -238t-197.5 -74q-85 0 -143 29l-22 -30h-127zM151 296q0 -66 8 -103l221 299q-32 22 -84 22q-77 0 -111 -50t-34 -168zM441 296q0 54 -8 97
l-218 -296q31 -19 81 -19q78 0 111.5 49.5t33.5 168.5z" />
    <glyph glyph-name="oslashacute.sc" horiz-adv-x="592" 
d="M243 685l81 153h120l-98 -153h-103zM4 -17l75 102q-42 72 -42 211q0 163 61.5 237.5t197.5 74.5q91 0 146 -32l21 29h127l-76 -103q41 -73 41 -206q0 -164 -61.5 -238t-197.5 -74q-85 0 -143 29l-22 -30h-127zM151 296q0 -66 8 -103l221 299q-32 22 -84 22
q-77 0 -111 -50t-34 -168zM441 296q0 54 -8 97l-218 -296q31 -19 81 -19q78 0 111.5 49.5t33.5 168.5z" />
    <glyph glyph-name="otilde.sc" horiz-adv-x="592" 
d="M467 816q0 -132 -102 -132q-40 0 -73 23.5t-51 23.5q-21 0 -30 -14.5t-9 -29.5h-77q0 133 103 133q39 0 72 -24t52 -24q21 0 30 14.5t9 29.5h76zM555 296q0 -164 -61.5 -238t-197.5 -74t-197.5 74t-61.5 238q0 163 61.5 237.5t197.5 74.5t197.5 -74.5t61.5 -237.5z
M151 296q0 -119 34 -168.5t111 -49.5q78 0 111.5 49.5t33.5 168.5q0 118 -33.5 168t-111.5 50q-77 0 -111 -50t-34 -168z" />
    <glyph glyph-name="oe.sc" horiz-adv-x="812" 
d="M295 0q-138 0 -198 69.5t-60 226.5t60 226.5t198 69.5h490v-97h-291v-146h249v-90h-249v-162h296v-97h-495zM151 296q0 -109 34 -157t111 -48h86v410h-86q-77 0 -111 -48t-34 -157z" />
    <glyph glyph-name="p.sc" horiz-adv-x="563" 
d="M60 0v594h198q155 0 217 -43t62 -160q0 -118 -61.5 -161.5t-218.5 -43.5h-85v-186h-112zM172 501v-219h104q78 0 112 20t34 89t-34.5 89.5t-112.5 20.5h-103z" />
    <glyph glyph-name="thorn.sc" horiz-adv-x="555" 
d="M60 0v592h114v-92h109q136 0 191 -42t55 -160t-55 -159t-195 -41h-106v-98h-113zM173 405v-213h111q68 -1 100.5 19.5t32.5 87.5q0 66 -32 86t-102 20h-110z" />
    <glyph glyph-name="q.sc" horiz-adv-x="603" 
d="M555 296q0 -178 -73 -251l91 -81l-82 -70l-96 103q-42 -13 -99 -13q-136 0 -197.5 74t-61.5 238q0 163 61.5 237.5t197.5 74.5t197.5 -74.5t61.5 -237.5zM151 296q0 -119 34 -168.5t111 -49.5q78 0 111.5 49.5t33.5 168.5q0 118 -33.5 168t-111.5 50q-77 0 -111 -50
t-34 -168z" />
    <glyph glyph-name="r.sc" horiz-adv-x="576" 
d="M60 0v594h229q137 0 193.5 -41.5t56.5 -156.5q0 -77 -25 -119t-80 -59l111 -218h-120l-96 202h-157v-202h-112zM172 498v-201h106q79 0 112.5 18t33.5 82t-33.5 82.5t-112.5 18.5h-106z" />
    <glyph glyph-name="racute.sc" horiz-adv-x="576" 
d="M222 680l81 153h120l-98 -153h-103zM60 0v594h229q137 0 193.5 -41.5t56.5 -156.5q0 -77 -25 -119t-80 -59l111 -218h-120l-96 202h-157v-202h-112zM172 498v-201h106q79 0 112.5 18t33.5 82t-33.5 82.5t-112.5 18.5h-106z" />
    <glyph glyph-name="rcaron.sc" horiz-adv-x="576" 
d="M449 829l-119 -150h-114l-115 150h105l66 -75l67 75h110zM60 0v594h229q137 0 193.5 -41.5t56.5 -156.5q0 -77 -25 -119t-80 -59l111 -218h-120l-96 202h-157v-202h-112zM172 498v-201h106q79 0 112.5 18t33.5 82t-33.5 82.5t-112.5 18.5h-106z" />
    <glyph glyph-name="rcommaaccent.sc" horiz-adv-x="576" 
d="M60 0v594h229q137 0 193.5 -41.5t56.5 -156.5q0 -77 -25 -119t-80 -59l111 -218h-120l-96 202h-157v-202h-112zM172 498v-201h106q79 0 112.5 18t33.5 82t-33.5 82.5t-112.5 18.5h-106zM199 -251q16 41 31 105q6 27 9.5 53t4.5 39v12h102q-6 -55 -24 -113
q-10 -31 -21.5 -55t-18.5 -32l-6 -9h-77z" />
    <glyph glyph-name="s.sc" horiz-adv-x="545" 
d="M512 161q0 -179 -240 -177q-237 2 -237 204h108q0 -111 133 -112q126 -2 126 81q0 37 -37.5 58.5t-91 33t-106.5 27.5t-90.5 55t-36.5 102q1 83 58 130t171 46q124 -1 177 -49.5t53 -142.5h-108q0 44 -25 70.5t-97 27.5q-119 1 -119 -78q0 -31 27 -51t67 -29t87 -23
t87 -30t67 -53t27 -90z" />
    <glyph glyph-name="sacute.sc" horiz-adv-x="545" 
d="M217 685l81 153h120l-98 -153h-103zM512 161q0 -179 -240 -177q-237 2 -237 204h108q0 -111 133 -112q126 -2 126 81q0 37 -37.5 58.5t-91 33t-106.5 27.5t-90.5 55t-36.5 102q1 83 58 130t171 46q124 -1 177 -49.5t53 -142.5h-108q0 44 -25 70.5t-97 27.5
q-119 1 -119 -78q0 -31 27 -51t67 -29t87 -23t87 -30t67 -53t27 -90z" />
    <glyph glyph-name="scaron.sc" horiz-adv-x="545" 
d="M444 834l-119 -150h-114l-115 150h105l66 -75l67 75h110zM512 161q0 -179 -240 -177q-237 2 -237 204h108q0 -111 133 -112q126 -2 126 81q0 37 -37.5 58.5t-91 33t-106.5 27.5t-90.5 55t-36.5 102q1 83 58 130t171 46q124 -1 177 -49.5t53 -142.5h-108q0 44 -25 70.5
t-97 27.5q-119 1 -119 -78q0 -31 27 -51t67 -29t87 -23t87 -30t67 -53t27 -90z" />
    <glyph glyph-name="scedilla.sc" horiz-adv-x="545" 
d="M391 -156q0 -51 -33.5 -74t-116.5 -23q-23 0 -43.5 2t-29.5 4l-8 2v68q0 -1 5 -2.5t17.5 -3t27.5 -1.5q37 0 53 8.5t16 30.5q0 43 -86 43h-4l41 89q-195 18 -195 201h108q0 -111 133 -112q126 -2 126 81q0 37 -37.5 58.5t-91 33t-106.5 27.5t-90.5 55t-36.5 102
q1 83 58 130t171 46q124 -1 177 -49.5t53 -142.5h-108q0 44 -25 70.5t-97 27.5q-119 1 -119 -78q0 -31 27 -51t67 -29t87 -23t87 -30t67 -53t27 -90q0 -152 -176 -173l-28 -59q83 -11 83 -85z" />
    <glyph glyph-name="scircumflex.sc" horiz-adv-x="545" 
d="M444 684h-109l-67 78l-66 -78h-107l116 150h114zM512 161q0 -179 -240 -177q-237 2 -237 204h108q0 -111 133 -112q126 -2 126 81q0 37 -37.5 58.5t-91 33t-106.5 27.5t-90.5 55t-36.5 102q1 83 58 130t171 46q124 -1 177 -49.5t53 -142.5h-108q0 44 -25 70.5t-97 27.5
q-119 1 -119 -78q0 -31 27 -51t67 -29t87 -23t87 -30t67 -53t27 -90z" />
    <glyph glyph-name="scommaaccent.sc" horiz-adv-x="545" 
d="M512 161q0 -179 -240 -177q-237 2 -237 204h108q0 -111 133 -112q126 -2 126 81q0 37 -37.5 58.5t-91 33t-106.5 27.5t-90.5 55t-36.5 102q1 83 58 130t171 46q124 -1 177 -49.5t53 -142.5h-108q0 44 -25 70.5t-97 27.5q-119 1 -119 -78q0 -31 27 -51t67 -29t87 -23
t87 -30t67 -53t27 -90zM203 -263q16 41 31 105q6 27 9.5 53t4.5 39v12h102q-6 -55 -24 -113q-10 -31 -21.5 -55t-18.5 -32l-6 -9h-77z" />
    <glyph glyph-name="germandbls.sc" horiz-adv-x="595" 
d="M563 185q0 -80 -52 -132.5t-171 -52.5h-114v93h107q114 0 114 108q0 51 -31.5 79.5t-90.5 28.5q-15 0 -31 -2.5t-24 -4.5l-9 -2v72l151 131h-142q-101 0 -101 -110v-393h-109v397q0 45 7 76.5t27.5 60.5t62 43.5t105.5 14.5h280v-89l-143 -128q86 -13 125 -60t39 -130z
" />
    <glyph glyph-name="uni0259.sc" horiz-adv-x="608" 
d="M562 296q0 -164 -60.5 -238t-197.5 -74t-197.5 77.5t-60.5 250.5h402q-2 104 -35.5 150.5t-108.5 46.5q-117 0 -137 -109h-115q13 107 74.5 157.5t177.5 50.5q137 0 197.5 -74t60.5 -238zM304 87q63 0 96 32.5t43 104.5h-278q10 -74 43 -105.5t96 -31.5z" />
    <glyph glyph-name="t.sc" horiz-adv-x="483" 
d="M184 0l1 490h-179v102h471v-102h-181l-1 -490h-111z" />
    <glyph glyph-name="tbar.sc" horiz-adv-x="483" 
d="M184 0v227h-92v81h92l1 182h-179v102h471v-102h-181l-1 -182h95v-81h-95v-227h-111z" />
    <glyph glyph-name="tcaron.sc" horiz-adv-x="483" 
d="M416 829l-119 -150h-114l-115 150h105l66 -75l67 75h110zM184 0l1 490h-179v102h471v-102h-181l-1 -490h-111z" />
    <glyph glyph-name="uni0163.sc" horiz-adv-x="483" 
d="M343 -145q0 -51 -33.5 -74t-116.5 -23q-23 0 -43.5 2t-29.5 4l-8 2v68q0 -1 5 -2.5t17.5 -3t27.5 -1.5q37 0 53 8.5t16 30.5q0 43 -86 43h-4l43 93l1 488h-179v102h471v-102h-181l-1 -490l-35 -60q83 -11 83 -85z" />
    <glyph glyph-name="uni021B.sc" horiz-adv-x="483" 
d="M184 0l1 490h-179v102h471v-102h-181l-1 -490h-111zM144 -252q15 41 30 105q6 27 10 53t4 38l1 13h101q-5 -55 -24 -113q-10 -31 -21.5 -55t-17.5 -33l-6 -8h-77z" />
    <glyph glyph-name="u.sc" horiz-adv-x="581" 
d="M529 284q0 -80 -8.5 -130.5t-33.5 -91.5t-73 -59.5t-124 -18.5q-75 0 -122.5 18.5t-72.5 59t-34 91.5t-9 131v308h112v-311q0 -104 26.5 -148.5t99.5 -44.5q74 0 100 44.5t26 148.5v311h113v-308z" />
    <glyph glyph-name="uacute.sc" horiz-adv-x="581" 
d="M238 680l81 153h120l-98 -153h-103zM529 284q0 -80 -8.5 -130.5t-33.5 -91.5t-73 -59.5t-124 -18.5q-75 0 -122.5 18.5t-72.5 59t-34 91.5t-9 131v308h112v-311q0 -104 26.5 -148.5t99.5 -44.5q74 0 100 44.5t26 148.5v311h113v-308z" />
    <glyph glyph-name="ubreve.sc" horiz-adv-x="581" 
d="M459 812q0 -50 -41.5 -92.5t-126.5 -42.5t-126.5 42.5t-41.5 92.5h98q0 -21 20 -41t50 -20q29 0 49.5 20t20.5 41h98zM529 284q0 -80 -8.5 -130.5t-33.5 -91.5t-73 -59.5t-124 -18.5q-75 0 -122.5 18.5t-72.5 59t-34 91.5t-9 131v308h112v-311q0 -104 26.5 -148.5
t99.5 -44.5q74 0 100 44.5t26 148.5v311h113v-308z" />
    <glyph glyph-name="ucircumflex.sc" horiz-adv-x="581" 
d="M465 679h-109l-67 78l-66 -78h-107l116 150h114zM529 284q0 -80 -8.5 -130.5t-33.5 -91.5t-73 -59.5t-124 -18.5q-75 0 -122.5 18.5t-72.5 59t-34 91.5t-9 131v308h112v-311q0 -104 26.5 -148.5t99.5 -44.5q74 0 100 44.5t26 148.5v311h113v-308z" />
    <glyph glyph-name="udieresis.sc" horiz-adv-x="581" 
d="M144 679v136h107v-136h-107zM330 679v136h107v-136h-107zM529 284q0 -80 -8.5 -130.5t-33.5 -91.5t-73 -59.5t-124 -18.5q-75 0 -122.5 18.5t-72.5 59t-34 91.5t-9 131v308h112v-311q0 -104 26.5 -148.5t99.5 -44.5q74 0 100 44.5t26 148.5v311h113v-308z" />
    <glyph glyph-name="uni1EE5.sc" horiz-adv-x="581" 
d="M529 284q0 -80 -8.5 -130.5t-33.5 -91.5t-73 -59.5t-124 -18.5q-75 0 -122.5 18.5t-72.5 59t-34 91.5t-9 131v308h112v-311q0 -104 26.5 -148.5t99.5 -44.5q74 0 100 44.5t26 148.5v311h113v-308zM233 -195v124h116v-124h-116z" />
    <glyph glyph-name="ugrave.sc" horiz-adv-x="581" 
d="M344 680h-103l-98 153h119zM529 284q0 -80 -8.5 -130.5t-33.5 -91.5t-73 -59.5t-124 -18.5q-75 0 -122.5 18.5t-72.5 59t-34 91.5t-9 131v308h112v-311q0 -104 26.5 -148.5t99.5 -44.5q74 0 100 44.5t26 148.5v311h113v-308z" />
    <glyph glyph-name="uhungarumlaut.sc" horiz-adv-x="581" 
d="M136 680l77 153h119l-93 -153h-103zM307 680l94 153h120l-111 -153h-103zM529 284q0 -80 -8.5 -130.5t-33.5 -91.5t-73 -59.5t-124 -18.5q-75 0 -122.5 18.5t-72.5 59t-34 91.5t-9 131v308h112v-311q0 -104 26.5 -148.5t99.5 -44.5q74 0 100 44.5t26 148.5v311h113v-308z
" />
    <glyph glyph-name="umacron.sc" horiz-adv-x="581" 
d="M154 787h275v-82h-275v82zM529 284q0 -80 -8.5 -130.5t-33.5 -91.5t-73 -59.5t-124 -18.5q-75 0 -122.5 18.5t-72.5 59t-34 91.5t-9 131v308h112v-311q0 -104 26.5 -148.5t99.5 -44.5q74 0 100 44.5t26 148.5v311h113v-308z" />
    <glyph glyph-name="uogonek.sc" horiz-adv-x="581" 
d="M257 -98q0 43 37 82h-4q-75 0 -122.5 18.5t-72.5 59t-34 91.5t-9 131v308h112v-311q0 -104 26.5 -148.5t99.5 -44.5q74 0 100 44.5t26 148.5v311h113v-308q0 -111 -20 -176t-75 -95q-62 -39 -62 -84q0 -36 36 -36q10 0 21.5 3.5t18.5 6.5l6 3v-69q-25 -21 -96 -21
q-53 0 -77 24t-24 62z" />
    <glyph glyph-name="uring.sc" horiz-adv-x="581" 
d="M406 768q0 -50 -30.5 -78t-82.5 -28q-53 0 -83.5 28t-30.5 78t30.5 78t83.5 28q52 0 82.5 -28t30.5 -78zM256 768q0 -17 10 -27.5t27 -10.5q16 0 26 10.5t10 27.5t-9.5 27t-26.5 10t-27 -10t-10 -27zM529 284q0 -80 -8.5 -130.5t-33.5 -91.5t-73 -59.5t-124 -18.5
q-75 0 -122.5 18.5t-72.5 59t-34 91.5t-9 131v308h112v-311q0 -104 26.5 -148.5t99.5 -44.5q74 0 100 44.5t26 148.5v311h113v-308z" />
    <glyph glyph-name="utilde.sc" horiz-adv-x="581" 
d="M462 811q0 -132 -102 -132q-40 0 -73 23.5t-51 23.5q-21 0 -30 -14.5t-9 -29.5h-77q0 133 103 133q39 0 72 -24t52 -24q21 0 30 14.5t9 29.5h76zM529 284q0 -80 -8.5 -130.5t-33.5 -91.5t-73 -59.5t-124 -18.5q-75 0 -122.5 18.5t-72.5 59t-34 91.5t-9 131v308h112v-311
q0 -104 26.5 -148.5t99.5 -44.5q74 0 100 44.5t26 148.5v311h113v-308z" />
    <glyph glyph-name="v.sc" horiz-adv-x="545" 
d="M2 592h124l149 -502l147 502h121l-202 -592h-135z" />
    <glyph glyph-name="w.sc" horiz-adv-x="865" 
d="M432 478l-115 -478h-135l-170 592h127l114 -495l115 495h129l116 -493l118 493h121l-174 -592h-133z" />
    <glyph glyph-name="wacute.sc" horiz-adv-x="865" 
d="M381 680l81 153h120l-98 -153h-103zM432 478l-115 -478h-135l-170 592h127l114 -495l115 495h129l116 -493l118 493h121l-174 -592h-133z" />
    <glyph glyph-name="wcircumflex.sc" horiz-adv-x="865" 
d="M608 679h-109l-67 78l-66 -78h-107l116 150h114zM432 478l-115 -478h-135l-170 592h127l114 -495l115 495h129l116 -493l118 493h121l-174 -592h-133z" />
    <glyph glyph-name="wdieresis.sc" horiz-adv-x="865" 
d="M287 679v136h107v-136h-107zM473 679v136h107v-136h-107zM432 478l-115 -478h-135l-170 592h127l114 -495l115 495h129l116 -493l118 493h121l-174 -592h-133z" />
    <glyph glyph-name="wgrave.sc" horiz-adv-x="865" 
d="M487 680h-103l-98 153h119zM432 478l-115 -478h-135l-170 592h127l114 -495l115 495h129l116 -493l118 493h121l-174 -592h-133z" />
    <glyph glyph-name="x.sc" horiz-adv-x="554" 
d="M274 219l-140 -219h-126l197 292l-196 300h123l143 -226l144 226h126l-202 -295l192 -297h-124z" />
    <glyph glyph-name="y.sc" horiz-adv-x="535" 
d="M213 0v177l-207 415h127l135 -323l129 323h132l-206 -415v-177h-110z" />
    <glyph glyph-name="yacute.sc" horiz-adv-x="535" 
d="M213 680l81 153h120l-98 -153h-103zM213 0v177l-207 415h127l135 -323l129 323h132l-206 -415v-177h-110z" />
    <glyph glyph-name="ycircumflex.sc" horiz-adv-x="535" 
d="M440 679h-109l-67 78l-66 -78h-107l116 150h114zM213 0v177l-207 415h127l135 -323l129 323h132l-206 -415v-177h-110z" />
    <glyph glyph-name="ydieresis.sc" horiz-adv-x="535" 
d="M119 679v136h107v-136h-107zM305 679v136h107v-136h-107zM213 0v177l-207 415h127l135 -323l129 323h132l-206 -415v-177h-110z" />
    <glyph glyph-name="ygrave.sc" horiz-adv-x="535" 
d="M319 680h-103l-98 153h119zM213 0v177l-207 415h127l135 -323l129 323h132l-206 -415v-177h-110z" />
    <glyph glyph-name="uni0233.sc" horiz-adv-x="535" 
d="M129 787h275v-82h-275v82zM213 0v177l-207 415h127l135 -323l129 323h132l-206 -415v-177h-110z" />
    <glyph glyph-name="uni1EF9.sc" horiz-adv-x="535" 
d="M437 811q0 -132 -102 -132q-40 0 -73 23.5t-51 23.5q-21 0 -30 -14.5t-9 -29.5h-77q0 133 103 133q39 0 72 -24t52 -24q21 0 30 14.5t9 29.5h76zM213 0v177l-207 415h127l135 -323l129 323h132l-206 -415v-177h-110z" />
    <glyph glyph-name="z.sc" horiz-adv-x="481" 
d="M16 2v94l311 400h-298v94h430v-94l-315 -400h318v-94h-446z" />
    <glyph glyph-name="zacute.sc" horiz-adv-x="481" 
d="M191 680l81 153h120l-98 -153h-103zM16 2v94l311 400h-298v94h430v-94l-315 -400h318v-94h-446z" />
    <glyph glyph-name="zcaron.sc" horiz-adv-x="481" 
d="M418 829l-119 -150h-114l-115 150h105l66 -75l67 75h110zM16 2v94l311 400h-298v94h430v-94l-315 -400h318v-94h-446z" />
    <glyph glyph-name="zdotaccent.sc" horiz-adv-x="481" 
d="M186 685v130h117v-130h-117zM16 2v94l311 400h-298v94h430v-94l-315 -400h318v-94h-446z" />
    <glyph glyph-name="zero.osf" horiz-adv-x="611" 
d="M565 279q0 -149 -58.5 -221t-201.5 -72t-201 72t-58 221t58 222t201 73q143 1 201.5 -72.5t58.5 -222.5zM164 279q0 -106 31 -151.5t110 -45.5q80 0 110.5 45.5t30.5 151.5q0 107 -30.5 153t-110.5 46q-79 0 -110 -46.5t-31 -152.5z" />
    <glyph glyph-name="one.osf" horiz-adv-x="367" 
d="M29 0v97h102v328l-93 -36v118l135 56h70v-466h104v-97h-318z" />
    <glyph glyph-name="two.osf" horiz-adv-x="525" 
d="M37 0v93q84 52 165 111l31 23l30 21.5t25.5 19t24 20.5l18.5 19t16.5 20.5l10.5 20t8 23t2 24.5q0 83 -109 83q-55 0 -84.5 -27t-29.5 -71h-109q0 193 221 193q222 0 222 -170q0 -84 -67 -156q-21 -22 -101 -92q-41 -33 -83 -63l252 4v-96h-443z" />
    <glyph glyph-name="three.osf" horiz-adv-x="557" 
d="M330 308q99 -17 144.5 -72.5t45.5 -151.5q0 -107 -60 -172t-194 -65q-129 0 -188.5 62.5t-59.5 158.5h116q0 -51 33.5 -83.5t95.5 -32.5q134 0 134 141q0 64 -41 99t-111 35l-86 -6v84l185 152l-295 -1v108h458v-106z" />
    <glyph glyph-name="four.osf" horiz-adv-x="587" 
d="M376 -163v164h-359v95l296 468h174v-468h81v-95h-81v-164h-111zM376 96v402l-239 -402h239z" />
    <glyph glyph-name="five.osf" horiz-adv-x="576" 
d="M207 457l-27 -164q54 34 150 34q107 0 160.5 -68.5t53.5 -173.5q0 -107 -61 -172.5t-194 -65.5t-196 60t-63 144h122q0 -42 35.5 -71.5t101.5 -29.5q67 0 101 35t34 100q0 68 -35 107t-93 39q-44 0 -78 -14.5t-43.5 -24.5t-14.5 -18l-109 1l60 388h394v-103z" />
    <glyph glyph-name="six.osf" horiz-adv-x="613" 
d="M576 226q0 -108 -62.5 -173.5t-201.5 -65.5q-141 0 -202.5 79t-61.5 248q0 222 61 313.5t203 91.5q66 0 115 -19t75 -50.5t38.5 -66t12.5 -70.5h-113q0 43 -31 74.5t-96 31.5t-100 -44.5t-45 -159.5q64 58 176 58q118 0 175 -69t57 -178zM317 372q-102 0 -153 -85
q4 -106 39.5 -152.5t108.5 -46.5q145 0 145 143q0 141 -140 141z" />
    <glyph glyph-name="seven.osf" horiz-adv-x="482" 
d="M116 -146q0 94 24.5 190t59 166t69.5 127t59 86l25 29l-350 2v110h476v-114q-10 -11 -27 -32t-60 -86.5t-75.5 -132.5t-59.5 -162t-27 -183h-114z" />
    <glyph glyph-name="eight.osf" horiz-adv-x="612" 
d="M306 -11q-142 0 -204 54t-62 154q0 85 40 131.5t75 49.5q-26 4 -59 41.5t-33 104.5q0 195 243 195t243 -195q0 -67 -33 -104.5t-60 -41.5q13 -1 31 -12t38 -31t33.5 -56.5t13.5 -81.5q0 -100 -62 -154t-204 -54zM306 629q-125 0 -125 -115q0 -44 32.5 -69.5t92.5 -25.5
q61 0 93 25.5t32 69.5q0 115 -125 115zM306 327q-68 0 -103.5 -30.5t-35.5 -86.5q0 -119 139 -119t139 119q0 56 -35.5 86.5t-103.5 30.5z" />
    <glyph glyph-name="nine.osf" horiz-adv-x="616" 
d="M566 233q0 -223 -59.5 -308.5t-206.5 -85.5q-69 0 -120.5 19t-78.5 51t-40 65.5t-13 69.5h114q0 -41 34.5 -72.5t103.5 -31.5q66 0 100.5 39.5t44.5 148.5q-63 -59 -170 -59q-232 0 -232 264q0 106 65 173t194 67q141 1 202.5 -79.5t61.5 -260.5zM296 172q101 0 154 88
q-3 115 -39 163.5t-109 48.5q-64 0 -102 -38.5t-38 -104.5q0 -77 35 -117t99 -40z" />
    <glyph glyph-name="zero.tf" horiz-adv-x="670" 
d="M607 353q0 -198 -64.5 -281t-210.5 -83t-210.5 83t-64.5 281t64.5 281.5t210.5 83.5t210.5 -83.5t64.5 -281.5zM176 353q0 -146 36.5 -202t119.5 -56q82 0 119 56t37 202q0 145 -37 202t-119 57t-119 -57t-37 -202z" />
    <glyph glyph-name="one.tf" horiz-adv-x="673" 
d="M168 0v91h121v477l-125 -50v118l169 73h71v-618h121v-91h-357z" />
    <glyph glyph-name="two.tf" horiz-adv-x="671" 
d="M73 3v105q90 62 186 143q52 42 75 62.5t54 54.5t43 64.5t12 66.5q0 50 -31.5 80.5t-92.5 30.5q-59 0 -94 -37t-35 -93h-117q0 108 61 173t183 65q129 0 187.5 -59t58.5 -150q0 -43 -12 -82t-26.5 -65.5t-47 -62t-51 -52l-62.5 -54.5q-21 -18 -107 -87l309 6v-109h-493z
" />
    <glyph glyph-name="three.tf" horiz-adv-x="673" 
d="M379 447q102 -16 148.5 -71.5t46.5 -151.5q0 -107 -61.5 -172t-200.5 -65q-134 0 -195 62.5t-61 158.5h119q0 -51 34.5 -83.5t99.5 -32.5q140 0 140 141q0 64 -42 98.5t-116 34.5l-86 -5v84l191 150l-309 -1v108h474v-106z" />
    <glyph glyph-name="four.tf" horiz-adv-x="670" 
d="M393 0v138h-363v101l296 466h181v-466h81v-101h-81v-138h-114zM393 239v400l-238 -400h238z" />
    <glyph glyph-name="five.tf" horiz-adv-x="670" 
d="M236 593l-27 -160q56 34 155 34q111 0 166 -68.5t55 -173.5q0 -107 -62.5 -172.5t-199.5 -65.5q-72 0 -126 18t-83 48t-43 64.5t-14 73.5h123q0 -42 36.5 -71.5t106.5 -29.5q141 0 141 135q0 69 -35.5 107.5t-98.5 38.5q-47 0 -82 -14.5t-44.5 -24.5t-14.5 -18l-112 1
l60 384h408v-103z" />
    <glyph glyph-name="six.tf" horiz-adv-x="672" 
d="M607 226q0 -109 -63 -174t-206 -65q-149 0 -211.5 78.5t-62.5 248.5q0 224 62 314.5t212 90.5q67 0 117.5 -19t77 -50.5t39 -65.5t12.5 -71h-118q0 43 -31 74.5t-96 31.5q-68 0 -103.5 -44.5t-46.5 -159.5q64 58 181 58q121 0 179 -69t58 -178zM343 372q-107 0 -159 -87
q4 -105 41 -151t113 -46q145 0 145 143q0 141 -140 141z" />
    <glyph glyph-name="seven.tf" horiz-adv-x="670" 
d="M210 0q0 91 24.5 185t59 163.5t69.5 126.5t59 86l25 29l-357 2v110h489v-114q-10 -11 -27 -32t-60 -86t-75.5 -131t-59.5 -159.5t-27 -179.5h-120z" />
    <glyph glyph-name="eight.tf" horiz-adv-x="670" 
d="M330 -11q-146 0 -209 53.5t-63 154.5q0 85 40 131.5t75 49.5q-26 4 -59 41.5t-33 104.5q0 195 249 195t249 -195q0 -67 -33.5 -104.5t-59.5 -41.5q13 -1 31 -12t38 -31t33.5 -56.5t13.5 -81.5q0 -101 -63 -154.5t-209 -53.5zM330 629q-131 0 -131 -115q0 -44 33.5 -69.5
t97.5 -25.5t97 25.5t33 69.5q0 59 -32 87t-98 28zM330 327q-72 0 -108.5 -30.5t-36.5 -86.5q0 -119 145 -119q144 0 144 119q0 117 -144 117z" />
    <glyph glyph-name="nine.tf" horiz-adv-x="671" 
d="M602 378q0 -222 -60.5 -306.5t-215.5 -84.5q-73 0 -126.5 19t-81.5 51t-41 65.5t-13 69.5h118q0 -42 35.5 -73t108.5 -31q69 0 103.5 38t45.5 147q-64 -58 -174 -58q-242 0 -242 264q0 107 66 173.5t203 66.5q149 1 211.5 -79t62.5 -262zM322 317q107 0 159 89
q-4 116 -40 164t-113 48q-68 0 -106.5 -38.5t-38.5 -105.5q0 -77 35.5 -117t103.5 -40z" />
    <glyph glyph-name="zero.subs" horiz-adv-x="513" 
d="M465 65q0 -149 -49 -210.5t-160 -61.5t-160 61.5t-49 210.5q0 148 49 210t160 62t160 -62t49 -210zM144 65q0 -105 26.5 -145.5t85.5 -40.5t85.5 40.5t26.5 145.5t-26.5 145.5t-85.5 40.5t-85.5 -40.5t-26.5 -145.5z" />
    <glyph glyph-name="one.subs" horiz-adv-x="260" 
d="M101 -197v412l-93 -41v100l128 55h58v-526h-93z" />
    <glyph glyph-name="two.subs" horiz-adv-x="421" 
d="M24 -194v82l136 109l44.5 36.5t35 32.5t31 36.5t16.5 35.5t8 43q0 35 -21.5 56t-65.5 21q-43 0 -67.5 -26t-24.5 -66h-95q0 82 45.5 130.5t140.5 48.5q99 0 143 -44t44 -113q0 -38 -9 -69t-30 -59.5t-38 -46t-50 -48.5q-9 -8 -13 -12l-74 -64l212 4v-87h-368z" />
    <glyph glyph-name="three.subs" horiz-adv-x="454" 
d="M276 135q74 -14 106.5 -56t32.5 -114q0 -77 -46.5 -124.5t-150.5 -47.5q-102 0 -147.5 47t-45.5 121h97q0 -35 24 -58t70 -23q98 0 98 92q0 46 -29 72t-84 26l-62 -4v68l134 104l-225 -3v88h357v-83z" />
    <glyph glyph-name="four.subs" horiz-adv-x="460" 
d="M290 -197v99h-265v83l212 342h146v-342h60v-83h-60v-99h-93zM290 -15v278l-160 -278h160z" />
    <glyph glyph-name="five.subs" horiz-adv-x="470" 
d="M179 242l-19 -114q38 23 108 23q86 0 127 -51t41 -129q0 -81 -46.5 -129.5t-150.5 -48.5t-152 45t-48 108h100q0 -29 25.5 -51t74.5 -22q99 0 99 98q0 48 -25.5 75t-72.5 27q-32 0 -55.5 -10t-30.5 -17.5t-10 -12.5h-91l45 290h309v-84z" />
    <glyph glyph-name="six.subs" horiz-adv-x="496" 
d="M456 -30q0 -80 -47.5 -128.5t-155.5 -48.5q-112 -1 -159 58t-47 185q0 166 47 233.5t160 67.5q97 0 141 -46.5t44 -108.5h-95q0 29 -22 50.5t-68 21.5q-48 0 -72.5 -29.5t-32.5 -108.5q48 39 130 39q91 0 134 -52t43 -133zM258 74q-75 0 -112 -58q2 -75 28 -108t80 -33
q101 0 101 99q0 100 -97 100z" />
    <glyph glyph-name="seven.subs" horiz-adv-x="389" 
d="M100 -197q0 67 18 135.5t43 119.5t50.5 92t43.5 62l18 22l-261 -1v92h368v-92q-7 -8 -19.5 -23.5t-43.5 -63.5t-55 -96t-43.5 -116.5t-19.5 -130.5h-99z" />
    <glyph glyph-name="eight.subs" horiz-adv-x="493" 
d="M250 -207q-111 0 -158 40.5t-47 115.5q0 63 28 98t54 37q-20 2 -42.5 30.5t-22.5 77.5q0 145 188 145t188 -145q0 -50 -23 -78t-44 -30q27 -2 55.5 -37t28.5 -98q0 -75 -47 -115.5t-158 -40.5zM250 264q-91 0 -91 -81q0 -66 91 -66t91 66q0 81 -91 81zM250 43
q-101 0 -101 -83q0 -84 101 -84t101 84q0 83 -101 83z" />
    <glyph glyph-name="nine.subs" horiz-adv-x="496" 
d="M456 84q0 -165 -45.5 -228t-162.5 -63q-104 0 -150.5 46.5t-46.5 106.5h96q0 -28 24.5 -49t76.5 -21q48 0 72.5 26t33.5 100q-50 -40 -127 -40q-180 0 -180 196q0 81 47.5 130t154.5 49q114 0 160.5 -59.5t46.5 -193.5zM245 45q75 0 112 60q-2 81 -28 115t-80 34
q-101 0 -101 -99q0 -110 97 -110z" />
    <glyph glyph-name="zero.dnom" horiz-adv-x="513" 
d="M465 262q0 -149 -49 -210.5t-160 -61.5t-160 61.5t-49 210.5q0 148 49 210t160 62t160 -62t49 -210zM144 262q0 -105 26.5 -145.5t85.5 -40.5t85.5 40.5t26.5 145.5t-26.5 145.5t-85.5 40.5t-85.5 -40.5t-26.5 -145.5z" />
    <glyph glyph-name="one.dnom" horiz-adv-x="260" 
d="M101 0v412l-93 -41v100l128 55h58v-526h-93z" />
    <glyph glyph-name="two.dnom" horiz-adv-x="421" 
d="M24 3v82l136 109l44.5 36.5t35 32.5t31 36.5t16.5 35.5t8 43q0 35 -21.5 56t-65.5 21q-43 0 -67.5 -26t-24.5 -66h-95q0 82 45.5 130.5t140.5 48.5q99 0 143 -44t44 -113q0 -38 -9 -69t-30 -59.5t-38 -46t-50 -48.5q-9 -8 -13 -12l-74 -64l212 4v-87h-368z" />
    <glyph glyph-name="three.dnom" horiz-adv-x="454" 
d="M276 332q74 -14 106.5 -56t32.5 -114q0 -77 -46.5 -124.5t-150.5 -47.5q-102 0 -147.5 47t-45.5 121h97q0 -35 24 -58t70 -23q98 0 98 92q0 46 -29 72t-84 26l-62 -4v68l134 104l-225 -3v88h357v-83z" />
    <glyph glyph-name="four.dnom" horiz-adv-x="460" 
d="M290 0v99h-265v83l212 342h146v-342h60v-83h-60v-99h-93zM290 182v278l-160 -278h160z" />
    <glyph glyph-name="five.dnom" horiz-adv-x="470" 
d="M179 439l-19 -114q38 23 108 23q86 0 127 -51t41 -129q0 -81 -46.5 -129.5t-150.5 -48.5t-152 45t-48 108h100q0 -29 25.5 -51t74.5 -22q99 0 99 98q0 48 -25.5 75t-72.5 27q-32 0 -55.5 -10t-30.5 -17.5t-10 -12.5h-91l45 290h309v-84z" />
    <glyph glyph-name="six.dnom" horiz-adv-x="496" 
d="M456 167q0 -80 -47.5 -128.5t-155.5 -48.5q-112 -1 -159 58t-47 185q0 166 47 233.5t160 67.5q97 0 141 -46.5t44 -108.5h-95q0 29 -22 50.5t-68 21.5q-48 0 -72.5 -29.5t-32.5 -108.5q48 39 130 39q91 0 134 -52t43 -133zM258 271q-75 0 -112 -58q2 -75 28 -108t80 -33
q101 0 101 99q0 100 -97 100z" />
    <glyph glyph-name="seven.dnom" horiz-adv-x="389" 
d="M100 0q0 67 18 135.5t43 119.5t50.5 92t43.5 63l18 21l-261 -1v92h368v-92q-7 -8 -19.5 -23.5t-43.5 -63.5t-55 -96t-43.5 -116.5t-19.5 -130.5h-99z" />
    <glyph glyph-name="eight.dnom" horiz-adv-x="493" 
d="M250 -10q-111 0 -158 40.5t-47 115.5q0 63 28 98t54 37q-20 2 -42.5 30.5t-22.5 77.5q0 145 188 145t188 -145q0 -50 -23 -78t-44 -30q27 -2 55.5 -37t28.5 -98q0 -75 -47 -115.5t-158 -40.5zM250 461q-91 0 -91 -81q0 -66 91 -66t91 66q0 81 -91 81zM250 240
q-101 0 -101 -83q0 -84 101 -84t101 84q0 83 -101 83z" />
    <glyph glyph-name="nine.dnom" horiz-adv-x="496" 
d="M456 281q0 -165 -45.5 -228t-162.5 -63q-104 0 -150.5 46t-46.5 107h96q0 -28 24.5 -49t76.5 -21q48 0 72.5 26t33.5 100q-47 -40 -127 -40q-180 0 -180 196q0 81 47.5 130t154.5 49q114 0 160.5 -59.5t46.5 -193.5zM245 242q75 0 112 60q-2 81 -28 115t-80 34
q-101 0 -101 -99q0 -110 97 -110z" />
    <glyph glyph-name="zero.numr" horiz-adv-x="513" 
d="M465 497q0 -149 -49 -210.5t-160 -61.5t-160 61.5t-49 210.5q0 148 49 210t160 62t160 -62t49 -210zM144 497q0 -105 26.5 -145.5t85.5 -40.5t85.5 40.5t26.5 145.5t-26.5 145.5t-85.5 40.5t-85.5 -40.5t-26.5 -145.5z" />
    <glyph glyph-name="one.numr" horiz-adv-x="260" 
d="M101 235v412l-93 -41v100l128 55h58v-526h-93z" />
    <glyph glyph-name="two.numr" horiz-adv-x="421" 
d="M24 238v82l136 109l44.5 36.5t35 32.5t31 36.5t16.5 35.5t8 43q0 35 -21.5 56t-65.5 21q-43 0 -67.5 -26t-24.5 -66h-95q0 82 45.5 130.5t140.5 48.5q99 0 143 -44t44 -113q0 -38 -9 -69t-30 -59.5t-38 -46t-50 -48.5q-9 -8 -13 -12l-74 -64l212 4v-87h-368z" />
    <glyph glyph-name="three.numr" horiz-adv-x="454" 
d="M276 567q74 -14 106.5 -56t32.5 -114q0 -77 -46.5 -124.5t-150.5 -47.5q-102 0 -147.5 47t-45.5 121h97q0 -35 24 -58t70 -23q98 0 98 92q0 46 -29 72t-84 26l-62 -4v68l134 104l-225 -3v88h357v-83z" />
    <glyph glyph-name="four.numr" horiz-adv-x="460" 
d="M290 235v99h-265v83l212 342h146v-342h60v-83h-60v-99h-93zM290 417v278l-160 -278h160z" />
    <glyph glyph-name="five.numr" horiz-adv-x="470" 
d="M179 674l-19 -114q38 23 108 23q86 0 127 -51t41 -129q0 -81 -46.5 -129.5t-150.5 -48.5t-152 45t-48 108h100q0 -29 25.5 -51t74.5 -22q99 0 99 98q0 48 -25.5 75t-72.5 27q-32 0 -55.5 -10t-30.5 -17.5t-10 -12.5h-91l45 290h309v-84z" />
    <glyph glyph-name="six.numr" horiz-adv-x="496" 
d="M456 402q0 -80 -47.5 -128.5t-155.5 -48.5q-112 -1 -159 58t-47 185q0 166 47 233.5t160 67.5q97 0 141 -46.5t44 -108.5h-95q0 29 -22 50.5t-68 21.5q-48 0 -72.5 -29.5t-32.5 -108.5q48 39 130 39q91 0 134 -52t43 -133zM258 506q-75 0 -112 -58q2 -75 28 -108t80 -33
q101 0 101 99q0 100 -97 100z" />
    <glyph glyph-name="seven.numr" horiz-adv-x="389" 
d="M100 235q0 67 18 135.5t43 119.5t50.5 92t43.5 62l18 22l-261 -1v92h368v-92q-7 -8 -19.5 -23.5t-43.5 -63.5t-55 -96t-43.5 -116.5t-19.5 -130.5h-99z" />
    <glyph glyph-name="eight.numr" horiz-adv-x="493" 
d="M250 225q-111 0 -158 40.5t-47 115.5q0 63 28 98t54 37q-20 2 -42.5 30.5t-22.5 77.5q0 145 188 145t188 -145q0 -50 -23 -78t-44 -30q27 -2 55.5 -37t28.5 -98q0 -75 -47 -115.5t-158 -40.5zM250 696q-91 0 -91 -81q0 -66 91 -66t91 66q0 81 -91 81zM250 475
q-101 0 -101 -83q0 -84 101 -84t101 84q0 83 -101 83z" />
    <glyph glyph-name="nine.numr" horiz-adv-x="496" 
d="M456 516q0 -165 -45.5 -228t-162.5 -63q-104 0 -150.5 46.5t-46.5 106.5h96q0 -28 24.5 -49t76.5 -21q48 0 72.5 26t33.5 100q-47 -40 -127 -40q-180 0 -180 196q0 81 47.5 130t154.5 49q114 0 160.5 -59.5t46.5 -193.5zM245 477q75 0 112 60q-2 81 -28 115t-80 34
q-101 0 -101 -99q0 -110 97 -110z" />
    <glyph glyph-name="zero.sc" horiz-adv-x="547" 
d="M509 292q0 -165 -55 -233t-180 -68t-180.5 68t-55.5 233q0 166 55.5 234.5t180.5 68.5t180 -68.5t55 -234.5zM150 292q0 -115 29.5 -159t94.5 -44t94 44t29 159q0 116 -29 160.5t-94 44.5t-94.5 -44.5t-29.5 -160.5z" />
    <glyph glyph-name="one.sc" horiz-adv-x="296" 
d="M111 0v458l-105 -38v106l147 61h65v-587h-107z" />
    <glyph glyph-name="two.sc" horiz-adv-x="482" 
d="M21 2v97q76 49 155 112q91 71 117 101q41 47 41 97q0 38 -25.5 61.5t-75.5 23.5q-48 0 -76 -29.5t-28 -73.5h-108q0 93 51.5 148.5t158.5 55.5q113 0 163 -50t50 -127q0 -35 -10 -68t-21.5 -54.5t-39 -51t-41 -42.5t-50.5 -45q-26 -23 -74 -61l237 5v-99h-424z" />
    <glyph glyph-name="three.sc" horiz-adv-x="496" 
d="M301 369q83 -15 120 -60.5t37 -123.5q0 -88 -52 -142.5t-172 -54.5q-116 0 -168 53t-52 136h109q0 -39 27.5 -64.5t80.5 -25.5q113 0 113 108q0 49 -34.5 76.5t-96.5 27.5l-71 -5v75l156 116l-259 -5v101h408v-92z" />
    <glyph glyph-name="four.sc" horiz-adv-x="504" 
d="M312 0v109h-302v93l244 381h166v-381h67v-93h-67v-109h-108zM312 202v318l-189 -318h189z" />
    <glyph glyph-name="five.sc" horiz-adv-x="511" 
d="M191 483l-21 -123q46 27 127 27q95 0 140.5 -57t45.5 -143q0 -89 -52.5 -144t-171.5 -55q-120 0 -174.5 50.5t-54.5 121.5h117q0 -31 29 -54.5t83 -23.5q114 0 114 107q0 54 -28 83t-79 29q-38 0 -66.5 -11.5t-36.5 -20t-11 -14.5l-106 1l51 323h353v-94z" />
    <glyph glyph-name="six.sc" horiz-adv-x="539" 
d="M505 187q0 -89 -53.5 -143.5t-177.5 -55.5q-128 0 -181.5 65.5t-53.5 206.5q0 186 53 261t183 75q58 0 101.5 -16t66.5 -42.5t33.5 -55t10.5 -59.5h-109q0 34 -25 58t-77 24q-55 0 -83 -34t-37 -124q54 43 148 43q103 0 152 -57t49 -146zM279 302q-82 0 -126 -65
q4 -83 33 -120t89 -37q116 0 116 112q0 110 -112 110z" />
    <glyph glyph-name="seven.sc" horiz-adv-x="427" 
d="M105 0q0 73 20 149.5t48.5 133t57 102.5t48.5 70l20 24h-296v102h419v-105q-8 -9 -22 -26.5t-49.5 -70.5t-62.5 -106.5t-49 -129t-22 -143.5h-112z" />
    <glyph glyph-name="eight.sc" horiz-adv-x="533" 
d="M266 -9q-126 0 -179.5 44.5t-53.5 128.5q0 70 33.5 109t62.5 41q-21 2 -49 33.5t-28 86.5q0 162 214 162q215 0 215 -162q0 -55 -27.5 -86.5t-48.5 -33.5q28 -3 61.5 -42t33.5 -108q0 -84 -54 -128.5t-180 -44.5zM266 514q-105 0 -105 -90q0 -34 26.5 -54t78.5 -20t79 20
t27 54q0 90 -106 90zM266 269q-57 0 -86 -24.5t-29 -67.5q0 -93 115 -93q116 0 116 93q0 92 -116 92z" />
    <glyph glyph-name="nine.sc" horiz-adv-x="540" 
d="M502 314q0 -185 -52 -255.5t-186 -70.5q-63 0 -109 16t-70 42.5t-35 55t-11 59.5h110q0 -33 28 -57t85 -24q55 0 84 30.5t38 113.5q-53 -44 -144 -44q-205 0 -205 216q0 88 56.5 144t175.5 56q128 1 181.5 -65.5t53.5 -216.5zM261 270q84 0 127 69q-3 89 -32 127t-90 38
q-55 0 -86 -30t-31 -83q0 -121 112 -121z" />
    <glyph glyph-name="exclamdown.case" horiz-adv-x="260" 
d="M72 588v126h116v-126h-116zM72 0l4 538h107l5 -538h-116z" />
    <glyph glyph-name="questiondown.case" horiz-adv-x="562" 
d="M361 714v-119h-116v119h116zM245 547h116l-1 -33q0 -50 -17 -87t-41 -58.5l-47.5 -42t-40.5 -51t-17 -71.5q0 -116 106 -116q109 0 109 134h112q0 -235 -220 -235q-119 0 -174.5 55.5t-55.5 152.5q0 51 17 88.5t41 59.5l49 43t43 52.5t20 75.5z" />
    <glyph glyph-name="braceleft.case" horiz-adv-x="433" 
d="M159 584q0 59 7.5 90.5t34.5 53t71.5 27.5t126.5 6v-85q-80 0 -104 -21t-25 -84l-1 -134q0 -24 -8.5 -43t-21 -28.5t-19 -13.5t-12.5 -6q4 -1 8 -3t15 -9t18.5 -16.5t14 -26t6.5 -36.5v-137q0 -60 24.5 -80.5t104.5 -20.5v-85q-54 0 -90.5 3t-64.5 11.5t-43.5 20.5
t-25.5 33.5t-13 47.5t-3 65v138q0 32 -16.5 44t-70.5 12v80q54 0 70.5 11.5t16.5 43.5v142z" />
    <glyph glyph-name="braceright.case" horiz-adv-x="433" 
d="M270 109q0 -59 -7.5 -90.5t-34.5 -53t-71.5 -27.5t-126.5 -6v85q80 0 104 21t25 84l1 134q1 67 60 91q-3 1 -7.5 3t-15 9t-18 16.5t-14 26t-6.5 36.5v137q0 60 -24.5 80.5t-104.5 20.5v85q81 0 126 -7t72 -29t34.5 -54.5t7.5 -91.5v-137q0 -32 16.5 -44t70.5 -12v-80
q-54 0 -70.5 -11.5t-16.5 -43.5v-142z" />
    <glyph glyph-name="bracketleft.case" horiz-adv-x="388" 
d="M100 -56v816h254v-81h-151v-654h151v-81h-254z" />
    <glyph glyph-name="bracketright.case" horiz-adv-x="384" 
d="M288 -56h-254v81h151v654h-151v81h254v-816z" />
    <glyph glyph-name="parenleft.case" horiz-adv-x="344" 
d="M101 345q0 82 8 155t19.5 118.5t23.5 79.5t20 48l8 14h120l-8 -16q-7 -15 -19 -49.5t-23.5 -80.5t-19.5 -118t-8 -151q0 -126 21 -227.5t41 -139.5l21 -39h-121q-3 5 -9 14t-20 44.5t-25 77.5t-20 115t-9 155z" />
    <glyph glyph-name="parenright.case" horiz-adv-x="344" 
d="M164 760q3 -5 8.5 -15t19 -46.5t24 -80t19 -117.5t8.5 -156t-8.5 -154.5t-20.5 -116.5t-24.5 -76t-21.5 -46l-8 -13h-120l8 15q7 14 19.5 47.5t24.5 78t20.5 115.5t8.5 150t-8 151t-19.5 118t-23 80.5t-19.5 49.5l-8 16h121z" />
    <glyph glyph-name="guillemotleft.case" horiz-adv-x="591" 
d="M185 151l-117 160v22l117 167h131l-136 -179l136 -170h-131zM392 151l-117 160v22l117 167h131l-136 -179l136 -170h-131z" />
    <glyph glyph-name="guillemotright.case" horiz-adv-x="591" 
d="M198 151h-131l135 170l-135 179h131l117 -167v-22zM405 151h-131l135 170l-135 179h131l117 -167v-22z" />
    <glyph glyph-name="guilsinglleft.case" horiz-adv-x="384" 
d="M185 151l-117 160v22l117 167h131l-136 -179l136 -170h-131z" />
    <glyph glyph-name="guilsinglright.case" horiz-adv-x="384" 
d="M198 151h-131l135 170l-135 179h131l117 -167v-22z" />
    <glyph glyph-name="asterisk.sc" horiz-adv-x="419" 
d="M61 527l23 72l91 -34l-4 94h77l-4 -94l91 34l23 -72l-92 -26l67 -77l-63 -50l-60 82l-60 -82l-64 50l68 77z" />
    <glyph glyph-name="backslash.sc" horiz-adv-x="444" 
d="M407 -54h-104l-266 712h105z" />
    <glyph glyph-name="braceleft.sc" horiz-adv-x="420" 
d="M159 503q0 39 3 64.5t12.5 47t24.5 33t42.5 19.5t62 10.5t86.5 2.5v-86q-80 0 -104 -21t-25 -84v-105q-1 -24 -9.5 -43t-21 -28.5t-19 -13.5t-12.5 -6q4 -1 8 -3t15 -9t19 -16.5t14.5 -26t6.5 -36.5v-109q0 -60 24 -80.5t104 -20.5v-85q-102 0 -150 15.5t-64.5 51.5
t-16.5 114v109q0 32 -16.5 44t-70.5 12v81q54 0 70.5 11.5t16.5 43.5v114z" />
    <glyph glyph-name="braceright.sc" horiz-adv-x="420" 
d="M261 84q0 -39 -3 -64.5t-12.5 -47t-24.5 -33t-42.5 -19.5t-62 -10.5t-86.5 -2.5v85q80 0 104 21t25 84l1 105q1 68 60 92q-3 1 -7.5 3t-15 9t-18 16.5t-14 26t-6.5 36.5v109q0 60 -24.5 80t-104.5 20v86q102 0 150 -15.5t64.5 -52t16.5 -114.5v-109q0 -32 16.5 -44
t70.5 -12v-80q-54 0 -70.5 -11.5t-16.5 -43.5v-114z" />
    <glyph glyph-name="bracketleft.sc" horiz-adv-x="384" 
d="M100 -86v759h245v-81h-151v-597h151v-81h-245z" />
    <glyph glyph-name="bracketright.sc" horiz-adv-x="384" 
d="M279 -86h-245v81h151v597h-151v81h245v-759z" />
    <glyph glyph-name="uni2016.sc" horiz-adv-x="417" 
d="M72 -73v746h82v-746h-82zM263 -73v746h82v-746h-82z" />
    <glyph glyph-name="exclam.sc" horiz-adv-x="260" 
d="M76 176l-4 418h116l-5 -418h-107zM72 0v127h116v-127h-116z" />
    <glyph glyph-name="exclamdown.sc" horiz-adv-x="260" 
d="M72 468v126h116v-126h-116zM72 0l4 418h107l5 -418h-116z" />
    <glyph glyph-name="numbersign.sc" horiz-adv-x="646" 
d="M106 0l30 150h-79v80h95l28 135h-84v80h100l28 136h81l-28 -136h126l28 136h81l-28 -136h83v-80h-99l-28 -135h87v-80h-103l-30 -150h-81l30 150h-127l-30 -150h-80zM233 230h126l28 135h-127z" />
    <glyph glyph-name="parenleft.sc" horiz-adv-x="318" 
d="M101 275q0 76 8 144t19.5 111.5t23.5 76t20 46.5l8 14h106q-3 -5 -8.5 -15.5t-18.5 -47.5t-23 -79t-18.5 -109.5t-8.5 -140.5t8.5 -139.5t20.5 -109t24 -74.5t20 -46l9 -14h-108l-8.5 14t-20 42.5t-25 74t-19.5 108.5t-9 144z" />
    <glyph glyph-name="parenright.sc" horiz-adv-x="318" 
d="M151 667l8.5 -14.5t19 -45t24 -77t19 -110.5t8.5 -145t-9 -143.5t-21 -109.5t-24.5 -73t-21.5 -44l-9 -13h-107l9 15t20 45t25 75.5t20 107.5t9 140t-8 140t-19.5 111t-23 77.5t-19.5 48.5l-8 15h108z" />
    <glyph glyph-name="question.sc" horiz-adv-x="503" 
d="M292 157h-109v30q1 36 16 65.5t36.5 49.5l43 38.5t37 44t15.5 55.5q0 35 -24.5 59t-69.5 24q-46 0 -71.5 -27t-25.5 -73h-104q0 87 48 140.5t152 53.5q106 0 158 -48t52 -121q0 -39 -15.5 -70.5t-37.5 -52.5t-44 -40t-38.5 -44t-17.5 -54zM183 0v111h109v-111h-109z" />
    <glyph glyph-name="questiondown.sc" horiz-adv-x="512" 
d="M329 595v-110h-109v110h109zM220 438h109v-30q-1 -36 -16 -65.5t-37 -49l-43.5 -38.5t-36.5 -44t-15 -55q0 -35 24.5 -59.5t69.5 -24.5q46 0 71.5 27.5t25.5 72.5h105q0 -87 -48.5 -140.5t-151.5 -53.5q-106 0 -158.5 48t-52.5 121q0 39 15.5 70.5t37.5 52.5t44 40
t38.5 44t18.5 54v30z" />
    <glyph glyph-name="quotedbl.sc" horiz-adv-x="362" 
d="M55 436l-18 224h124l-18 -224h-88zM219 436l-18 224h124l-18 -224h-88z" />
    <glyph glyph-name="quotedblleft.sc" horiz-adv-x="386" 
d="M50 413q1 42 23 125q11 39 25 70.5t22 43.5l9 12h81q-23 -54 -39 -135q-8 -38 -11.5 -67t-3.5 -39v-10h-106zM210 413q1 42 23 125q11 39 25 70.5t22 43.5l9 12h81q-23 -54 -40 -135q-7 -38 -10.5 -67t-3.5 -39v-10h-106z" />
    <glyph glyph-name="quotedblright.sc" horiz-adv-x="386" 
d="M30 413q23 54 39 135q8 38 11.5 67t3.5 39v10h106q-1 -42 -23 -125q-11 -39 -25 -70.5t-22 -43.5l-9 -12h-81zM190 413q23 54 39 135q8 38 11.5 67t3.5 39v10h106q-1 -42 -24 -125q-11 -39 -24.5 -70.5t-21.5 -43.5l-9 -12h-81z" />
    <glyph glyph-name="quoteleft.sc" horiz-adv-x="227" 
d="M50 413q1 42 23 125q11 39 25 70.5t22 43.5l9 12h81q-23 -54 -39 -135q-8 -38 -11.5 -67t-3.5 -39v-10h-106z" />
    <glyph glyph-name="quoteright.sc" horiz-adv-x="226" 
d="M30 413q23 54 39 135q8 38 11.5 67t3.5 39v10h106q-1 -42 -23 -125q-11 -39 -25 -70.5t-22 -43.5l-9 -12h-81z" />
    <glyph glyph-name="quotesingle.sc" horiz-adv-x="198" 
d="M55 436l-18 224h124l-18 -224h-88z" />
    <glyph glyph-name="slash.sc" horiz-adv-x="437" 
d="M37 -64l259 710h104l-258 -710h-105z" />
    <glyph glyph-name="paragraph.alt" horiz-adv-x="640" 
d="M311 0v286q-158 3 -218 52t-60 185t60 184.5t218 52.5h257v-760h-82v680h-92v-680h-83z" />
    <glyph glyph-name="registered.alt" horiz-adv-x="510" 
d="M469 531q0 -101 -50.5 -161.5t-163.5 -60.5q-112 0 -163 60.5t-51 161.5q0 100 51 162t163 62q113 0 163.5 -61.5t50.5 -162.5zM93 531q0 -176 162 -176t162 176q0 179 -162 179t-162 -179zM168 416v232h92q50 0 71.5 -17t21.5 -61q0 -57 -42 -70l40 -84h-49l-35 79h-52
v-79h-47zM215 610v-78h41q25 0 36.5 7t11.5 31q0 25 -11.5 32.5t-36.5 7.5h-41z" />
    <glyph glyph-name="at.case" horiz-adv-x="881" 
d="M748 350q0 165 -73.5 254t-237.5 89q-158 0 -231.5 -91.5t-73.5 -251.5q0 -73 15.5 -131.5t49.5 -107t95 -75t146 -26.5q120 0 185 32v-83q-76 -28 -186 -28q-205 0 -298 111.5t-93 307.5q0 92 21.5 166.5t66.5 133t122 91t181 32.5q208 0 303 -113t95 -310
q0 -146 -36.5 -207.5t-125.5 -61.5q-100 0 -125 95q-46 -55 -140 -55q-179 0 -179 226q0 228 179 228q80 0 134 -54l6 47h81v-303q0 -116 58 -116q32 0 46.5 41.5t14.5 159.5zM425 200q83 0 114 60v174q-41 61 -114 61q-51 0 -76.5 -39t-25.5 -109q0 -69 25.5 -108t76.5 -39
z" />
    <glyph glyph-name="section.sups" horiz-adv-x="347" 
d="M287 554q0 -31 -23 -56q22 -19 22 -52q0 -79 -115 -79q-60 0 -85.5 22t-25.5 66h61q0 -43 50 -43q23 0 36 8.5t13 21.5q0 17 -16.5 26.5t-39.5 14t-46 10.5t-39.5 23t-16.5 46q0 34 24 56q-22 19 -22 51q0 77 109 77q58 0 83 -21.5t25 -62.5h-62q0 38 -46 38
q-44 0 -44 -30q0 -19 24.5 -28t54.5 -12t54.5 -21.5t24.5 -54.5zM128 562q0 -8 4 -14t14 -10t17 -6t23.5 -5.5t23.5 -4.5q11 13 11 29q0 6 -2 11t-7.5 9t-9.5 6.5t-13.5 5l-15 4t-17 4t-16.5 3.5q-12 -14 -12 -32z" />
    <glyph glyph-name="dagger.sups" horiz-adv-x="323" 
d="M60 664h64v76h76v-76h63v-65h-63v-226h-76v226h-64v65z" />
    <glyph glyph-name="daggerdbl.sups" horiz-adv-x="323" 
d="M60 664h64v76h76v-76h63v-65h-63v-84h63v-66h-63v-76h-76v76h-64v66h64v84h-64v65z" />
    <glyph glyph-name="ampersand.sc" horiz-adv-x="618" 
d="M311 608q181 0 181 -169h-100q0 90 -81 90q-86 0 -86 -78q0 -17 5.5 -34t11.5 -29t23.5 -32t27 -29.5l37 -36.5l38.5 -38l77 -78q19 56 19 147h93q0 -131 -47 -213l83 -81v-31h-98l-44 43q-70 -55 -188 -55q-210 0 -210 187q0 122 111 171q-39 57 -39 117q0 149 186 149z
M272 222l-58 60q-64 -38 -64 -111q0 -111 134 -111q71 0 112 35z" />
    <glyph glyph-name="degree.sc" horiz-adv-x="354" 
d="M294 520q0 -121 -117 -121t-117 121q0 123 117 123t117 -123zM127 520q0 -62 50 -62t50 62q0 64 -50 64t-50 -64z" />
    <glyph glyph-name="bar.sc" horiz-adv-x="226" 
d="M72 -73v746h82v-746h-82z" />
    <glyph glyph-name="brokenbar.sc" horiz-adv-x="226" 
d="M72 386v287h82v-287h-82zM154 254v-327h-82v327h82z" />
    <glyph glyph-name="cent.sc" horiz-adv-x="496" 
d="M205 -17v71q-90 12 -129 70.5t-39 163.5q0 106 39 165.5t129 71.5v69h94v-69q84 -9 122.5 -55t41.5 -128h-108q-3 73 -56 91v-288q54 17 55 79h109q-8 -154 -164 -171v-70h-94zM149 288q0 -116 56 -141v283q-56 -25 -56 -142z" />
    <glyph glyph-name="dollar.sc" horiz-adv-x="486" 
d="M195 -35v70q-160 20 -160 179h93q0 -76 67 -95v157q-34 9 -58.5 19t-48.5 27.5t-36 44t-12 62.5q2 135 155 152v58h95v-59q82 -10 117.5 -52.5t35.5 -116.5h-96q0 67 -57 84v-154q36 -9 60.5 -19t50.5 -27t39 -44t13 -63q0 -139 -163 -154v-69h-95zM135 431q0 -42 60 -64
v130q-60 -13 -60 -66zM356 184q0 43 -66 66v-134q66 11 66 68z" />
    <glyph glyph-name="Euro.sc" horiz-adv-x="540" 
d="M195 189q11 -57 39.5 -84.5t79.5 -27.5q43 0 69 20t28 59h93q-8 -166 -195 -166q-107 0 -159 48.5t-66 150.5h-67v71h61v59h-61v71h66q12 106 64.5 156.5t161.5 50.5q192 0 198 -176h-94q-2 42 -28 65.5t-71 23.5q-52 0 -80.5 -29t-39.5 -91h187v-71h-193v-59h193v-71
h-186z" />
    <glyph glyph-name="percent.sc" horiz-adv-x="729" 
d="M325 449q0 -75 -34.5 -114t-115.5 -39q-79 0 -114 39t-35 114q0 77 34.5 116.5t114.5 39.5q81 0 115.5 -39.5t34.5 -116.5zM112 0l392 587h103l-392 -587h-103zM104 449q0 -44 16.5 -64.5t54.5 -20.5q39 0 55.5 20.5t16.5 64.5q0 45 -16.5 67t-55.5 22q-71 0 -71 -89z
M691 134q0 -75 -34.5 -114t-114.5 -39q-150 0 -150 153q0 77 35 116.5t115 39.5t114.5 -39.5t34.5 -116.5zM471 134q0 -43 16.5 -63.5t54.5 -20.5t54.5 20.5t16.5 63.5q0 89 -71 89t-71 -89z" />
    <glyph glyph-name="perthousand.sc" horiz-adv-x="1045" 
d="M325 449q0 -75 -34.5 -114t-115.5 -39q-79 0 -114 39t-35 114q0 77 34.5 116.5t114.5 39.5q81 0 115.5 -39.5t34.5 -116.5zM112 0l392 587h103l-392 -587h-103zM104 449q0 -44 16.5 -64.5t54.5 -20.5q39 0 55.5 20.5t16.5 64.5q0 45 -16.5 67t-55.5 22q-71 0 -71 -89z
M691 134q0 -75 -34.5 -114t-114.5 -39q-150 0 -150 153q0 77 35 116.5t115 39.5t114.5 -39.5t34.5 -116.5zM1016 134q0 -75 -34.5 -114t-115.5 -39q-150 0 -150 153q0 77 35 116.5t115 39.5q81 0 115.5 -39.5t34.5 -116.5zM471 134q0 -43 16.5 -63.5t54.5 -20.5t54.5 20.5
t16.5 63.5q0 89 -71 89t-71 -89zM794 134q0 -84 72 -84q38 0 54.5 20.5t16.5 63.5q0 89 -71 89q-72 0 -72 -89z" />
    <glyph glyph-name="uni20BD.sc" horiz-adv-x="570" 
d="M92 0v122h-75v77h75v57h-75v84l75 -1v259h188q146 0 205 -36t59 -136q0 -99 -58.5 -134.5t-205.5 -35.5h-77v-57h148v-77h-148v-122h-111zM203 515v-176h90q68 0 102 18t34 70t-34 70t-101 18h-91z" />
    <glyph glyph-name="sterling.sc" horiz-adv-x="481" 
d="M220 203q1 -5 1 -16q0 -67 -43 -101l269 3v-92h-422v87q85 21 85 90q0 11 -2 29h-91v78h73q-4 10 -14.5 33.5t-15.5 36.5t-9.5 35.5t-4.5 44.5q0 72 51 116.5t154 44.5q108 0 156 -48t48 -140h-107q0 45 -25 70.5t-68 25.5q-44 0 -68.5 -24t-24.5 -66q0 -21 6 -41
t18.5 -46.5t17.5 -41.5h134v-78h-118z" />
    <glyph glyph-name="yen.sc" horiz-adv-x="515" 
d="M205 0v130h-95v73h95v34h-95v73h69l-173 284h124l128 -249l121 249h130l-173 -284h69v-73h-94v-34h94v-73h-94v-130h-106z" />
    <glyph glyph-name="caroncomb.alt" 
d="M-238 593l54 167h93l-79 -167h-68z" />
    <glyph glyph-name="uni0308.case" 
d="M-355 769v135h117v-135h-117zM-161 769v135h117v-135h-117z" />
    <glyph glyph-name="uni0307.case" 
d="M-170 769v135h117v-135h-117z" />
    <glyph glyph-name="gravecomb.case" 
d="M-47 770h-121l-98 128h137z" />
    <glyph glyph-name="acutecomb.case" 
d="M-259 769l82 128h138l-99 -128h-121z" />
    <glyph glyph-name="uni030B.case" 
d="M-434 770l77 128h120l-93 -128h-104zM-263 770l95 128h120l-111 -128h-104z" />
    <glyph glyph-name="caroncomb.alt.case" 
d="M-250 769l57 169h99l-75 -169h-81z" />
    <glyph glyph-name="uni0302.case" 
d="M-73 769h-113l-65 67l-64 -67h-110l110 130h128z" />
    <glyph glyph-name="uni030C.case" 
d="M-44 899l-114 -130h-128l-110 130h109l65 -68l65 68h113z" />
    <glyph glyph-name="uni0306.case" 
d="M-51 887q0 -48 -40.5 -86t-125.5 -38t-125.5 38t-40.5 86h97q0 -19 20 -34.5t49 -15.5t49.5 15.5t20.5 34.5h96z" />
    <glyph glyph-name="uni030A.case" 
d="M-54 862q0 -51 -31 -79.5t-84 -28.5q-54 0 -85 28.5t-31 79.5t31 79.5t85 28.5q53 0 84 -28.5t31 -79.5zM-206 862q0 -17 10 -27.5t27 -10.5q16 0 26 10.5t10 27.5t-10 27.5t-26 10.5q-17 0 -27 -10.5t-10 -27.5z" />
    <glyph glyph-name="tildecomb.case" 
d="M-67 898q0 -133 -103 -133q-40 0 -70.5 23t-51.5 23q-22 0 -31 -14t-9 -30h-77q0 60 22 96.5t82 36.5q40 0 70.5 -23t50.5 -23q22 0 31 14t9 30h77z" />
    <glyph glyph-name="uni0304.case" 
d="M-335 875h275v-90h-275v90z" />
    <glyph glyph-name="uni0338.case" 
d="M-552 14l501 736h128l-501 -736h-128z" />
    <glyph glyph-name="uni0335.sc" horiz-adv-x="363" 
d="M43 301v81h278v-81h-278z" />
    <glyph glyph-name="uni0336.sc" horiz-adv-x="823" 
d="M103 297v90h612v-90h-612z" />
    <glyph glyph-name="uni0338.sc" horiz-adv-x="472" 
d="M-55 83l459 622h127l-459 -622h-127z" />
    <glyph glyph-name="bitcoin" horiz-adv-x="597" 
d="M192 -47v91h-89v1h-29v646h118v87h67v-87h53v87h68v-91q85 -11 120.5 -50.5t35.5 -110.5q0 -113 -96 -146q62 -18 87 -57t25 -99q0 -88 -34.5 -128.5t-137.5 -49.5v-93h-68v91h-53v-91h-67zM181 601v-174h125q72 0 98.5 19.5t26.5 67.5q0 46 -30 66.5t-95 20.5h-125z
M181 332v-198h125q81 0 110.5 20.5t29.5 77.5q0 53 -32.5 76.5t-107.5 23.5h-125z" />
    <glyph glyph-name="bitcoin.sc" horiz-adv-x="505" 
d="M160 -39v75h-73v1h-27v541h100v73h62v-73h44v73h63v-77q72 -9 101.5 -42t29.5 -93q0 -94 -78 -122q91 -28 91 -129q0 -73 -29 -107t-115 -43v-77h-63v75h-44v-75h-62zM161 496v-137h99q58 0 80 15t22 53q0 37 -24 53t-78 16h-99zM161 275v-157h99q66 -1 90 15.5t24 62.5
q0 42 -26 60.5t-88 18.5h-99z" />
    </font>
</defs>
</svg>
